<svg xmlns="http://www.w3.org/2000/svg">
<defs>
<font
   vert-adv-y="1024"
   vert-origin-y="768"
   vert-origin-x="512"
   horiz-origin-y="0"
   horiz-origin-x="0"
   id="font472"
   horiz-adv-x="2048">
<!-- Bariol Bold is a trademark of atipo. -->
<!-- Copyright: Copyright 2020 Adobe System Incorporated. All rights reserved. -->
<font-face
   id="font-face4"
   underline-thickness="40"
   underline-position="-251"
   units-per-em="2048"
   font-family="Bariol-Bold" />
<missing-glyph
   id="missing-glyph6"
   d="M68,0l0,1365l544,0l0,-1365M136,68l408,0l0,1229l-408,0z"
   horiz-adv-x="748" />
<glyph
   id="glyph8"
   horiz-adv-x="2048"
   unicode=" " />
<glyph
   id="glyph10"
   horiz-adv-x="462"
   unicode=" " />
<glyph
   id="glyph12"
   d="M84,117C84,208 129,254 219,254C308,254 352,208 352,117C352,28 308,-16 219,-16C129,-16 84,28 84,117M92,1280C90,1319 100,1348 123,1367C145,1386 177,1395 219,1395C260,1395 292,1386 314,1367C336,1348 346,1319 344,1280l-39,-815C304,442 296,423 282,409C267,394 246,387 219,387C190,387 168,394 153,408C138,422 130,441 129,465z"
   horiz-adv-x="434"
   unicode="!" />
<glyph
   id="glyph14"
   d="M74,1311C73,1338 80,1358 97,1373C114,1388 139,1395 172,1395C205,1395 230,1388 246,1374C262,1359 269,1338 268,1311l-18,-328C248,934 222,909 172,909C121,909 94,934 92,983M330,1311C329,1338 336,1358 353,1373C370,1388 395,1395 428,1395C461,1395 486,1388 502,1374C518,1359 525,1338 524,1311l-18,-328C504,934 478,909 428,909C377,909 350,934 348,983z"
   horiz-adv-x="598"
   unicode="&quot;" />
<glyph
   id="glyph16"
   d="M186,573l95,0l30,195l-75,0C211,768 189,777 171,795C152,813 143,835 143,860C143,885 152,907 171,925C189,943 211,952 236,952l104,0l49,303C393,1278 404,1298 423,1313C441,1328 462,1335 487,1335C514,1335 538,1326 557,1308C576,1290 586,1268 586,1241C586,1236 585,1228 584,1217l-43,-265l164,0l49,303C758,1278 769,1298 788,1313C806,1328 827,1335 852,1335C879,1335 903,1326 922,1308C941,1290 950,1268 950,1241C950,1236 949,1228 948,1217l-43,-265l78,0C1008,952 1030,943 1048,925C1066,907 1075,885 1075,860C1075,835 1066,813 1048,795C1030,777 1008,768 983,768l-106,0l-33,-195l90,0C959,573 981,564 999,546C1017,528 1026,506 1026,481C1026,456 1017,434 999,416C981,398 959,389 934,389l-119,0l-53,-332C758,34 748,15 731,0C714,-15 693,-23 666,-23C637,-23 613,-13 595,6C576,25 567,48 567,76C567,82 568,93 571,109l45,280l-165,0l-54,-332C393,34 383,15 366,0C349,-15 328,-23 301,-23C272,-23 249,-13 231,6C212,25 203,48 203,76C203,82 204,93 207,109l45,280l-66,0C161,389 139,398 121,416C103,434 94,456 94,481C94,506 103,528 121,546C139,564 161,573 186,573M479,573l166,0l31,195l-164,0z"
   horiz-adv-x="1169"
   unicode="#" />
<glyph
   id="glyph18"
   d="M59,279C59,309 70,335 92,357C113,378 139,389 168,389C198,389 228,374 258,344C362,240 474,188 594,188C778,188 870,251 870,377C870,409 862,437 845,462C828,487 805,507 776,524C747,541 713,556 676,570C639,584 599,598 558,611C517,624 476,639 435,654C394,669 354,687 317,709C280,731 247,756 218,784C189,812 166,847 149,890C132,932 123,979 123,1032C123,1129 155,1211 218,1279C281,1346 375,1387 500,1401l0,117C500,1545 509,1567 528,1586C547,1605 569,1614 594,1614C621,1614 643,1605 662,1586C681,1567 690,1545 690,1518l0,-119C772,1389 845,1368 910,1336C975,1303 1024,1263 1059,1214C1072,1194 1079,1172 1079,1149C1079,1119 1068,1093 1047,1072C1025,1051 999,1040 969,1040C942,1040 913,1055 881,1085C848,1117 806,1143 755,1164C704,1184 650,1194 594,1194C515,1194 456,1179 418,1148C379,1117 360,1078 360,1032C360,1003 369,978 386,956C403,934 426,915 455,900C484,885 517,870 554,857C591,844 631,830 672,817C713,803 755,788 796,773C837,757 877,738 914,715C951,692 985,665 1014,636C1043,606 1066,569 1083,525C1100,481 1108,432 1108,377C1108,263 1072,171 1001,102C929,32 825,-10 690,-23l0,-114C690,-164 681,-186 662,-205C643,-224 621,-233 594,-233C569,-233 547,-224 528,-205C509,-186 500,-164 500,-137l0,114C405,-11 320,18 245,63C170,108 113,161 76,221C65,239 59,258 59,279z"
   horiz-adv-x="1173"
   unicode="$" />
<glyph
   id="glyph20"
   d="M74,1073C74,1122 80,1166 91,1205C102,1244 119,1279 143,1310C166,1341 199,1365 240,1382C281,1399 330,1407 387,1407C498,1407 579,1377 630,1317C680,1256 705,1175 705,1073C705,1025 699,982 688,943C677,904 659,869 635,838C611,807 578,782 536,765C494,748 444,739 387,739C330,739 281,748 240,765C199,782 166,807 143,838C119,869 102,904 91,943C80,982 74,1025 74,1073M387,911C434,911 467,926 488,957C508,987 518,1026 518,1073C518,1121 508,1160 488,1190C467,1220 434,1235 387,1235C301,1235 258,1181 258,1073C258,965 301,911 387,911M358,78C358,92 362,106 369,121l643,1222C1017,1357 1028,1369 1043,1380C1058,1390 1075,1395 1096,1395C1123,1395 1147,1386 1166,1368C1185,1349 1194,1327 1194,1300C1194,1287 1191,1273 1184,1260l-643,-1227C523,0 494,-16 455,-16C428,-16 405,-7 386,11C367,29 358,51 358,78M860,307C860,356 866,400 877,439C888,478 905,513 929,544C953,575 986,599 1027,616C1068,633 1117,641 1174,641C1285,641 1366,611 1416,551C1466,490 1491,409 1491,307C1491,206 1466,126 1416,65C1365,4 1285,-27 1174,-27C1117,-27 1068,-18 1027,-1C986,16 953,41 929,72C905,103 888,138 877,177C866,216 860,259 860,307M1174,145C1221,145 1254,160 1275,191C1295,221 1305,260 1305,307C1305,355 1295,394 1275,424C1254,454 1221,469 1174,469C1087,469 1044,415 1044,307C1044,199 1087,145 1174,145z"
   horiz-adv-x="1564"
   unicode="%" />
<glyph
   id="glyph22"
   d="M68,369C68,435 86,499 122,560C157,621 207,677 272,727C215,845 186,954 186,1053C186,1151 216,1235 275,1304C334,1373 415,1407 518,1407C571,1407 618,1398 659,1380C700,1362 732,1338 757,1308C782,1277 800,1243 813,1206C825,1169 831,1129 831,1087C831,1010 807,938 758,871C709,803 642,736 555,670C594,619 641,569 695,518C748,467 802,424 856,387C869,406 886,443 907,500C916,525 930,545 949,560C968,575 989,582 1014,582C1043,582 1069,571 1090,549C1111,527 1122,502 1122,473C1122,458 1119,440 1112,418C1094,362 1068,311 1034,264C1051,252 1101,225 1184,184C1226,165 1247,133 1247,88C1247,59 1237,35 1217,15C1196,-6 1172,-16 1143,-16C1118,-16 1082,-4 1033,20C984,43 936,70 891,100C791,14 665,-29 512,-29C381,-29 275,6 192,77C109,147 68,244 68,369M293,369C293,310 314,263 355,227C396,190 449,172 512,172C555,172 591,177 620,186C648,195 678,211 711,233C580,325 471,431 385,551C324,498 293,437 293,369M408,1053C408,982 422,914 451,848C557,923 610,1003 610,1087C610,1121 602,1149 587,1172C572,1195 548,1206 516,1206C479,1206 452,1192 435,1164C417,1136 408,1099 408,1053z"
   horiz-adv-x="1298"
   unicode="&amp;" />
<glyph
   id="glyph24"
   d="M74,1311C73,1338 80,1358 97,1373C114,1388 139,1395 172,1395C205,1395 230,1388 246,1374C262,1359 269,1338 268,1311l-18,-328C248,934 222,909 172,909C121,909 94,934 92,983z"
   horiz-adv-x="342"
   unicode="'" />
<glyph
   id="glyph26"
   d="M438,1501C453,1508 468,1511 483,1511C510,1511 534,1501 554,1482C574,1462 584,1438 584,1411C584,1393 579,1375 569,1358C558,1341 543,1328 524,1319C498,1308 475,1294 455,1278C434,1261 417,1242 402,1219C387,1196 375,1174 364,1151C353,1128 344,1100 337,1066C330,1031 325,1000 321,971C316,942 313,905 312,860C310,815 309,775 308,740C307,705 307,661 307,606C307,557 307,517 308,486C308,455 309,419 311,378C312,337 314,304 317,277C320,250 324,221 329,188C334,155 340,128 348,107C355,85 364,62 375,39C386,15 398,-5 413,-21C427,-38 443,-53 462,-68C481,-83 501,-96 524,-106C543,-115 558,-128 569,-145C579,-163 584,-181 584,-199C584,-226 574,-250 554,-269C534,-289 510,-299 483,-299C468,-299 453,-296 438,-289C307,-234 215,-139 162,-3C109,132 82,335 82,606C82,877 109,1080 162,1216C215,1351 307,1446 438,1501z"
   horiz-adv-x="645"
   unicode="(" />
<glyph
   id="glyph28"
   d="M61,-199C61,-181 66,-163 77,-145C87,-128 102,-115 121,-106C144,-96 164,-83 183,-68C202,-53 218,-38 233,-21C247,-5 259,15 270,39C281,62 290,85 298,107C305,128 312,155 317,188C322,221 325,250 328,277C331,304 333,337 335,378C336,419 337,455 338,486C338,517 338,557 338,606C338,661 338,705 337,740C336,775 335,815 334,860C332,905 329,942 325,971C320,1000 315,1031 308,1066C301,1100 293,1128 282,1151C271,1174 258,1196 243,1219C228,1242 211,1261 191,1278C170,1294 147,1308 121,1319C102,1328 87,1341 77,1358C66,1375 61,1393 61,1411C61,1438 71,1462 91,1482C111,1501 135,1511 162,1511C177,1511 192,1508 207,1501C338,1446 431,1351 484,1216C537,1080 563,877 563,606C563,335 537,132 484,-3C431,-139 338,-234 207,-289C192,-296 177,-299 162,-299C135,-299 111,-289 91,-269C71,-250 61,-226 61,-199z"
   horiz-adv-x="645"
   unicode=")" />
<glyph
   id="glyph30"
   d="M63,1229C74,1270 98,1284 137,1272l182,-53l-6,182C311,1439 332,1458 377,1458C421,1458 442,1439 440,1401l-6,-182l182,53C655,1284 679,1270 690,1229C696,1209 696,1192 690,1178C684,1163 670,1154 649,1149l-180,-31l117,-160C609,927 603,900 569,877C534,852 505,857 483,891l-106,168l-107,-168C248,857 219,852 184,877C151,900 145,927 168,958l117,160l-181,31C83,1154 69,1163 63,1178C57,1192 57,1209 63,1229z"
   horiz-adv-x="757"
   unicode="*" />
<glyph
   id="glyph32"
   d="M94,541l273,0l0,272C367,840 377,863 396,882C415,901 438,911 465,911C492,911 515,901 534,882C553,863 563,840 563,813l0,-272l273,0C861,541 883,532 902,513C921,494 930,471 930,446C930,421 921,399 902,380C883,361 861,352 836,352l-273,0l0,-270C563,55 553,32 534,13C515,-6 492,-16 465,-16C438,-16 415,-6 396,13C377,32 367,55 367,82l0,270l-273,0C69,352 47,361 28,380C9,399 0,421 0,446C0,471 9,494 28,513C47,532 69,541 94,541z"
   horiz-adv-x="929"
   unicode="+" />
<glyph
   id="glyph34"
   d="M72,-305C72,-294 76,-284 84,-274C105,-248 120,-228 129,-215C138,-202 148,-184 157,-159C166,-135 170,-110 170,-84C170,-57 158,-24 133,17C108,57 96,90 96,117C96,208 141,254 231,254C320,254 365,208 365,117C365,20 344,-69 301,-150C258,-232 207,-295 150,-338C139,-346 128,-350 117,-350C104,-350 94,-346 85,-337C76,-328 72,-318 72,-305z"
   horiz-adv-x="460"
   unicode="," />
<glyph
   id="glyph36"
   d="M182,610l410,0C617,610 639,601 658,582C677,563 686,541 686,516C686,491 677,469 658,450C639,431 617,422 592,422l-410,0C157,422 135,431 116,450C97,469 88,491 88,516C88,541 97,563 116,582C135,601 157,610 182,610z"
   horiz-adv-x="774"
   unicode="-" />
<glyph
   id="glyph38"
   d="M96,117C96,208 141,254 231,254C320,254 365,208 365,117C365,28 320,-16 231,-16C141,-16 96,28 96,117z"
   horiz-adv-x="460"
   unicode="." />
<glyph
   id="glyph40"
   d="M53,-90C53,-75 56,-61 61,-47l535,1513C605,1489 619,1507 638,1520C657,1532 678,1538 700,1538C731,1538 757,1527 779,1506C800,1484 811,1458 811,1427C811,1412 808,1398 803,1384l-535,-1513C259,-152 245,-170 226,-182C207,-195 186,-201 164,-201C133,-201 107,-190 86,-168C64,-147 53,-121 53,-90z"
   horiz-adv-x="864"
   unicode="/" />
<glyph
   id="glyph42"
   d="M90,690C90,935 134,1115 221,1232C308,1349 443,1407 627,1407C810,1407 944,1349 1031,1232C1118,1115 1161,935 1161,690C1161,444 1118,263 1031,146C944,29 810,-29 627,-29C443,-29 308,29 221,146C134,263 90,444 90,690M324,690C324,511 348,381 396,300C444,219 521,178 627,178C732,178 809,218 857,299C904,380 928,510 928,690C928,869 904,999 857,1080C809,1161 732,1202 627,1202C522,1202 445,1161 397,1080C348,998 324,868 324,690z"
   horiz-adv-x="1251"
   unicode="0" />
<glyph
   id="glyph44"
   d="M49,1085C49,1128 65,1160 98,1180l295,190C420,1387 444,1395 465,1395C496,1395 524,1383 547,1360C570,1337 582,1309 582,1278l0,-1178C582,69 570,42 547,19C524,-4 496,-16 465,-16C434,-16 406,-4 383,19C360,42 348,69 348,100l0,975l-119,-80C210,980 188,973 162,973C131,973 105,984 83,1006C60,1028 49,1054 49,1085z"
   horiz-adv-x="724"
   unicode="1" />
<glyph
   id="glyph46"
   d="M80,104C80,152 88,198 105,241C122,284 144,322 173,355C201,388 234,419 271,449C308,479 346,507 387,533C428,559 468,585 509,610C549,635 588,662 625,689C662,716 694,744 723,773C751,802 773,834 790,871C807,908 815,946 815,987C815,1048 794,1099 751,1140C708,1181 650,1202 575,1202C466,1202 389,1153 342,1055C319,1011 285,989 240,989C209,989 183,1000 162,1022C140,1043 129,1069 129,1100C129,1116 132,1132 139,1147C174,1226 228,1290 302,1337C376,1384 467,1407 575,1407C722,1407 838,1369 923,1293C1007,1216 1049,1114 1049,987C1049,928 1036,872 1010,818C984,764 950,716 908,675C866,634 820,594 770,557C719,520 669,486 618,455C567,424 521,394 479,367C437,340 403,313 377,286C351,259 338,233 338,209l629,0C996,209 1020,199 1041,178C1061,157 1071,133 1071,104C1071,75 1061,51 1041,31C1020,10 996,0 967,0l-783,0C155,0 131,10 111,31C90,51 80,75 80,104z"
   horiz-adv-x="1132"
   unicode="2" />
<glyph
   id="glyph48"
   d="M66,262C66,291 77,317 98,339C119,360 145,371 174,371C207,371 240,353 272,317C311,272 353,237 396,214C439,190 491,178 553,178C642,178 710,199 755,241C800,283 823,341 823,416C823,580 742,662 580,662l-127,0C422,662 395,672 374,693C353,714 342,739 342,768C342,793 351,817 369,840l288,329l-411,0C217,1169 193,1179 172,1200C151,1221 141,1245 141,1274C141,1303 151,1327 172,1348C193,1368 217,1378 246,1378l655,0C930,1378 954,1368 975,1348C996,1327 1006,1303 1006,1274C1006,1248 997,1225 979,1204l-299,-338C750,858 810,840 861,813C911,786 950,751 978,709C1005,667 1025,622 1038,574C1051,526 1057,473 1057,416C1057,274 1014,165 929,88C844,11 718,-27 553,-27C452,-27 360,-6 278,37C195,80 131,134 84,201C72,219 66,239 66,262z"
   horiz-adv-x="1153"
   unicode="3" />
<glyph
   id="glyph50"
   d="M63,399C63,418 69,438 82,457l625,882C732,1375 764,1393 805,1393C836,1393 864,1381 887,1358C910,1335 922,1307 922,1276l0,-772l71,0C1022,504 1046,494 1067,473C1088,452 1098,428 1098,399C1098,370 1088,346 1067,326C1046,305 1022,295 993,295l-71,0l0,-195C922,69 910,42 887,19C864,-4 836,-16 805,-16C774,-16 746,-4 723,19C700,42 688,69 688,100l0,195l-520,0C139,295 115,305 94,326C73,346 63,370 63,399M365,504l323,0l0,471z"
   horiz-adv-x="1148"
   unicode="4" />
<glyph
   id="glyph52"
   d="M57,301C57,330 68,356 90,378C111,399 137,410 166,410C204,410 236,391 262,352C303,291 346,246 393,218C439,190 498,176 569,176C652,176 719,200 769,249C819,297 844,368 844,461C844,553 819,623 769,671C719,719 652,743 569,743C511,743 463,737 426,724C388,711 349,691 309,662C307,661 303,658 296,653C289,648 285,645 282,643C279,641 274,638 267,635C260,632 255,629 250,628C245,626 240,624 233,623C226,622 218,621 211,621C181,621 155,632 133,653C111,674 100,700 100,729C100,739 101,751 104,764l103,530C212,1316 223,1336 242,1353C260,1370 282,1378 309,1378l615,0C953,1378 977,1368 998,1348C1018,1327 1028,1303 1028,1274C1028,1245 1018,1221 998,1200C977,1179 953,1169 924,1169l-535,0l-53,-268C400,932 478,948 569,948C646,948 715,938 776,919C837,900 891,871 936,832C981,793 1016,742 1041,679C1065,616 1077,544 1077,461C1077,297 1032,174 941,93C850,12 726,-29 569,-29C488,-29 413,-14 344,15C274,44 218,78 175,118C132,157 98,201 72,248C62,266 57,284 57,301z"
   horiz-adv-x="1179"
   unicode="5" />
<glyph
   id="glyph54"
   d="M84,659C84,1158 267,1407 633,1407C714,1407 785,1396 848,1373C910,1350 957,1322 989,1290C1012,1267 1024,1241 1024,1212C1024,1183 1014,1159 993,1138C972,1117 947,1106 918,1106C897,1106 875,1113 852,1128C817,1152 784,1170 751,1183C718,1196 678,1202 633,1202C531,1202 453,1167 400,1097C346,1026 319,926 319,795C354,831 399,861 455,884C510,907 570,918 633,918C780,918 898,877 987,796C1076,714 1120,599 1120,451C1120,369 1107,297 1082,235C1057,173 1021,123 974,85C927,46 872,18 810,-1C748,-20 679,-29 602,-29C513,-29 435,-12 368,22C301,55 247,103 206,165C165,227 134,299 114,382C94,464 84,556 84,659M324,539C324,426 348,337 397,274C445,210 513,178 602,178C691,178 760,200 811,244C862,287 887,356 887,451C887,535 862,599 811,644C760,689 695,711 616,711C487,711 389,654 324,539z"
   horiz-adv-x="1204"
   unicode="6" />
<glyph
   id="glyph56"
   d="M141,1378l750,0C920,1378 944,1368 965,1348C985,1327 995,1303 995,1274C995,1217 985,1160 964,1105C943,1049 917,998 884,951C851,904 814,857 774,810C734,762 694,712 655,661C615,610 579,557 546,502C513,447 486,385 465,315C444,244 434,171 434,94C434,63 423,37 401,16C378,-5 351,-16 319,-16C287,-16 260,-5 238,16C216,37 205,63 205,94C205,169 215,244 236,318C256,391 283,457 316,516C349,575 385,631 425,686C464,741 504,791 543,837C582,882 619,925 652,964C685,1003 711,1040 732,1076C752,1111 762,1142 762,1169l-621,0C112,1169 88,1179 68,1200C47,1221 37,1245 37,1274C37,1303 47,1327 68,1348C88,1368 112,1378 141,1378z"
   horiz-adv-x="1038"
   unicode="7" />
<glyph
   id="glyph58"
   d="M72,412C72,567 149,681 303,754C256,779 216,816 185,864C153,912 137,967 137,1028C137,1150 176,1244 255,1309C334,1374 445,1407 588,1407C731,1407 842,1374 921,1309C999,1244 1038,1150 1038,1028C1038,967 1022,912 991,864C959,816 919,779 872,754C1027,681 1104,567 1104,412C1104,267 1060,158 971,83C882,8 754,-29 588,-29C422,-29 295,8 206,83C117,158 72,267 72,412M380,586C330,546 305,488 305,412C305,336 331,278 382,238C433,198 501,178 588,178C675,178 743,198 794,238C845,278 870,336 870,412C870,488 845,546 796,586C747,625 677,645 588,645C499,645 429,625 380,586M367,1028C367,970 387,926 426,896C465,865 519,850 588,850C657,850 712,865 751,896C790,926 809,970 809,1028C809,1084 790,1127 751,1157C712,1187 658,1202 588,1202C518,1202 464,1187 425,1157C386,1127 367,1084 367,1028z"
   horiz-adv-x="1177"
   unicode="8" />
<glyph
   id="glyph60"
   d="M84,928C84,1010 97,1082 122,1144C147,1206 184,1256 231,1294C278,1332 332,1360 394,1379C456,1398 525,1407 602,1407C691,1407 770,1390 837,1357C904,1323 958,1275 999,1213C1040,1151 1070,1079 1090,997C1110,914 1120,822 1120,719C1120,220 937,-29 571,-29C490,-29 419,-17 357,6C294,29 247,56 215,88C192,111 180,137 180,166C180,195 191,220 212,241C233,262 258,272 287,272C308,272 329,265 352,250C387,226 421,208 454,195C487,182 526,176 571,176C673,176 751,211 805,282C858,353 885,453 885,584C850,548 805,519 750,496C694,473 634,461 571,461C424,461 306,502 217,584C128,665 84,780 84,928M317,928C317,844 342,780 393,735C444,690 509,668 588,668C655,668 713,684 762,715C811,746 851,787 881,840C881,953 857,1042 808,1105C759,1168 691,1200 602,1200C513,1200 444,1178 393,1135C342,1092 317,1023 317,928z"
   horiz-adv-x="1204"
   unicode="9" />
<glyph
   id="glyph62"
   d="M96,117C96,208 141,254 231,254C320,254 365,208 365,117C365,28 320,-16 231,-16C141,-16 96,28 96,117M96,797C96,888 141,934 231,934C320,934 365,888 365,797C365,708 320,664 231,664C141,664 96,708 96,797z"
   horiz-adv-x="460"
   unicode=":" />
<glyph
   id="glyph64"
   d="M72,-305C72,-294 76,-284 84,-274C105,-248 120,-228 129,-215C138,-202 148,-184 157,-159C166,-135 170,-110 170,-84C170,-57 158,-24 133,17C108,57 96,90 96,117C96,208 141,254 231,254C320,254 365,208 365,117C365,20 344,-69 301,-150C258,-232 207,-295 150,-338C139,-346 128,-350 117,-350C104,-350 94,-346 85,-337C76,-328 72,-318 72,-305M96,797C96,888 141,934 231,934C320,934 365,888 365,797C365,708 320,664 231,664C141,664 96,708 96,797z"
   horiz-adv-x="460"
   unicode=";" />
<glyph
   id="glyph66"
   d="M45,563l543,412C604,987 623,993 645,993C672,993 695,983 714,964C733,945 743,922 743,895C743,860 729,834 702,815l-452,-334l452,-334C729,128 743,102 743,68C743,41 733,18 714,-1C695,-21 672,-31 645,-31C624,-31 605,-25 588,-12l-543,411C15,422 0,450 0,481C0,512 15,540 45,563z"
   horiz-adv-x="743"
   unicode="&lt;" />
<glyph
   id="glyph68"
   d="M94,362l742,0C861,362 883,353 902,334C921,315 930,293 930,268C930,243 921,221 902,202C883,183 861,174 836,174l-742,0C69,174 47,183 28,202C9,221 0,243 0,268C0,293 9,315 28,334C47,353 69,362 94,362M94,717l742,0C861,717 883,708 902,689C921,670 930,648 930,623C930,598 921,576 902,557C883,538 861,528 836,528l-742,0C69,528 47,538 28,557C9,576 0,598 0,623C0,648 9,670 28,689C47,708 69,717 94,717z"
   horiz-adv-x="929"
   unicode="=" />
<glyph
   id="glyph70"
   d="M0,68C0,102 14,128 41,147l453,334l-453,334C14,834 0,860 0,895C0,922 10,945 29,964C48,983 71,993 98,993C121,993 140,987 156,975l542,-412C728,540 743,512 743,481C743,450 728,422 698,399l-542,-411C139,-25 120,-31 98,-31C71,-31 48,-21 29,-1C10,18 0,41 0,68z"
   horiz-adv-x="743"
   unicode="&gt;" />
<glyph
   id="glyph72"
   d="M41,1034C41,1151 78,1242 152,1308C226,1374 328,1407 459,1407C594,1407 700,1376 775,1314C850,1251 887,1163 887,1049C887,1004 880,963 866,926C851,888 833,856 810,831C787,806 761,783 734,762C706,741 678,722 650,707C622,691 597,676 574,662C551,648 532,634 518,619C503,604 496,588 496,571C496,558 503,541 516,522C529,503 535,483 535,461C535,428 524,402 501,381C478,360 452,350 424,350C393,350 366,361 344,383C293,432 268,490 268,557C268,592 275,624 290,654C305,683 324,709 347,730C370,751 396,772 425,791C453,810 481,828 510,846C538,864 564,883 587,902C610,921 629,943 644,968C659,993 666,1020 666,1049C666,1099 648,1138 612,1165C575,1192 524,1206 459,1206C400,1206 353,1191 318,1162C283,1133 266,1090 266,1034C266,1003 255,977 233,955C211,933 185,922 154,922C123,922 97,933 75,955C52,977 41,1003 41,1034M283,117C283,208 328,254 418,254C507,254 551,208 551,117C551,28 507,-16 418,-16C328,-16 283,28 283,117z"
   horiz-adv-x="927"
   unicode="?" />
<glyph
   id="glyph74"
   d="M80,365C80,604 146,786 277,910C408,1034 590,1096 825,1096C970,1096 1097,1071 1207,1020C1317,969 1404,891 1469,786C1533,681 1565,554 1565,406C1565,368 1562,331 1555,294C1548,257 1535,219 1518,182C1501,144 1479,111 1452,83C1425,54 1391,31 1348,13C1305,-5 1257,-14 1204,-14C1146,-14 1100,-2 1066,23C1032,47 1008,73 995,100C936,24 855,-14 750,-14C672,-14 609,8 561,53C513,98 489,156 489,227C489,298 514,353 565,392C615,431 677,451 750,451l211,0l0,28C961,516 948,546 923,568C898,589 862,600 817,600C760,600 706,580 653,541C638,530 621,524 604,524C583,524 566,531 552,546C537,560 530,577 530,598C530,621 536,638 549,651C614,721 703,756 817,756C916,756 993,732 1049,685C1105,637 1133,571 1133,487l0,-249C1133,213 1141,193 1158,179C1175,165 1195,158 1219,158C1324,158 1376,241 1376,406C1376,575 1327,703 1228,792C1129,880 995,924 825,924C740,924 663,913 596,892C529,870 470,837 421,793C372,748 334,690 308,618C281,546 268,462 268,365C268,173 318,28 417,-70C516,-168 652,-217 825,-217C997,-217 1136,-185 1243,-121C1257,-113 1272,-109 1288,-109C1313,-109 1334,-117 1351,-134C1368,-151 1376,-172 1376,-197C1376,-232 1361,-257 1331,-274C1196,-351 1027,-389 825,-389C592,-389 410,-324 278,-193C146,-62 80,124 80,365M664,227C664,163 708,131 795,131C840,131 879,144 912,170C945,195 961,230 961,274l0,43l-189,0C737,317 711,309 692,294C673,278 664,256 664,227z"
   horiz-adv-x="1648"
   unicode="@" />
<glyph
   id="glyph76"
   d="M39,100C39,116 42,130 47,143l483,1178C538,1340 551,1357 570,1372C588,1387 611,1395 639,1395C667,1395 690,1387 709,1372C727,1357 740,1340 748,1321l483,-1178C1236,130 1239,116 1239,100C1239,69 1227,42 1204,19C1181,-4 1153,-16 1122,-16C1097,-16 1074,-9 1055,6C1036,20 1021,38 1012,61l-125,297l-496,0l-125,-297C257,38 242,20 223,6C204,-9 181,-16 156,-16C125,-16 97,-4 74,19C51,42 39,69 39,100M471,575l336,0l-168,431z"
   horiz-adv-x="1277"
   unicode="A" />
<glyph
   id="glyph78"
   d="M123,119l0,1141C123,1293 135,1321 158,1344C181,1367 209,1378 242,1378l368,0C685,1378 750,1369 806,1350C861,1331 905,1304 937,1270C968,1236 992,1199 1007,1158C1022,1117 1030,1071 1030,1022C1030,957 1016,899 988,850C959,800 923,764 879,743C954,714 1008,673 1042,619C1075,565 1092,497 1092,414C1092,286 1054,185 978,111C902,37 792,0 647,0l-405,0C209,0 181,12 158,35C135,58 123,86 123,119M360,213l287,0C782,213 850,280 850,414C850,477 833,527 799,562C764,597 714,614 647,614l-287,0M360,815l250,0C672,815 718,831 748,863C778,894 793,937 793,991C793,1107 732,1165 610,1165l-250,0z"
   horiz-adv-x="1163"
   unicode="B" />
<glyph
   id="glyph80"
   d="M70,688C70,927 125,1107 235,1227C345,1347 504,1407 711,1407C828,1407 929,1387 1012,1347C1095,1306 1159,1253 1204,1186C1219,1162 1227,1139 1227,1118C1227,1089 1216,1063 1195,1042C1173,1021 1147,1010 1116,1010C1085,1010 1057,1024 1032,1051C987,1100 941,1136 892,1159C843,1182 782,1194 711,1194C576,1194 476,1152 412,1069C347,985 315,858 315,688C315,511 347,382 410,303C473,224 574,184 711,184C786,184 848,194 896,214C944,233 993,268 1042,319C1073,350 1102,365 1130,365C1161,365 1187,354 1209,333C1230,311 1241,285 1241,254C1241,231 1234,211 1221,193C1171,126 1100,73 1009,32C918,-9 818,-29 711,-29C284,-29 70,210 70,688z"
   horiz-adv-x="1310"
   unicode="C" />
<glyph
   id="glyph82"
   d="M123,119l0,1141C123,1293 135,1321 158,1344C181,1367 209,1378 242,1378l276,0C623,1378 715,1366 795,1341C874,1316 944,1277 1003,1224C1062,1170 1107,1098 1138,1009C1169,919 1184,812 1184,688C1184,564 1169,457 1138,368C1107,278 1062,207 1003,154C944,101 874,62 795,37C715,12 623,0 518,0l-276,0C209,0 181,12 158,35C135,58 123,86 123,119M360,213l158,0C586,213 645,221 695,238C745,254 789,280 826,317C863,353 891,402 910,464C929,526 938,601 938,688C938,859 903,981 832,1055C761,1128 656,1165 518,1165l-158,0z"
   horiz-adv-x="1251"
   unicode="D" />
<glyph
   id="glyph84"
   d="M123,119l0,1141C123,1293 135,1321 158,1344C181,1367 209,1378 242,1378l639,0C910,1378 935,1368 956,1347C977,1326 987,1301 987,1272C987,1243 977,1218 956,1197C935,1176 910,1165 881,1165l-521,0l0,-366l388,0C777,799 801,789 822,768C842,747 852,723 852,694C852,665 842,641 822,621C801,600 777,590 748,590l-388,0l0,-377l543,0C932,213 958,203 979,182C1000,161 1010,135 1010,106C1010,77 1000,52 979,31C958,10 932,0 903,0l-661,0C209,0 181,12 158,35C135,58 123,86 123,119z"
   horiz-adv-x="1071"
   unicode="E" />
<glyph
   id="glyph86"
   d="M123,102l0,1158C123,1293 135,1321 158,1344C181,1367 209,1378 242,1378l639,0C910,1378 935,1368 956,1347C977,1326 987,1301 987,1272C987,1243 977,1218 956,1197C935,1176 910,1165 881,1165l-521,0l0,-379l388,0C777,786 801,776 822,756C842,735 852,711 852,682C852,653 842,629 822,609C801,588 777,578 748,578l-388,0l0,-476C360,69 349,41 326,18C303,-5 275,-16 242,-16C209,-16 181,-4 158,19C135,42 123,69 123,102z"
   horiz-adv-x="1071"
   unicode="F" />
<glyph
   id="glyph88"
   d="M70,688C70,927 125,1107 235,1227C345,1347 504,1407 711,1407C828,1407 929,1387 1012,1347C1095,1306 1159,1253 1204,1186C1219,1162 1227,1139 1227,1118C1227,1089 1216,1063 1195,1042C1173,1021 1147,1010 1116,1010C1085,1010 1057,1024 1032,1051C987,1100 941,1136 892,1159C843,1182 782,1194 711,1194C576,1194 476,1152 412,1069C347,985 315,858 315,688C315,511 347,382 410,303C473,224 574,184 711,184C860,184 973,223 1049,301l0,229l-279,0C741,530 717,540 697,561C676,582 666,606 666,635C666,664 676,688 697,709C717,729 741,739 770,739l397,0C1196,739 1223,728 1246,707C1269,685 1280,660 1280,631l0,-328C1280,260 1268,224 1245,195C1196,129 1122,75 1023,34C924,-8 820,-29 711,-29C284,-29 70,210 70,688z"
   horiz-adv-x="1382"
   unicode="G" />
<glyph
   id="glyph90"
   d="M123,102l0,1174C123,1309 135,1338 158,1361C181,1384 209,1395 242,1395C275,1395 303,1384 326,1361C349,1338 360,1309 360,1276l0,-463l586,0l0,463C946,1309 958,1338 981,1361C1004,1384 1032,1395 1065,1395C1098,1395 1126,1384 1149,1361C1172,1338 1184,1309 1184,1276l0,-1174C1184,69 1173,42 1150,19C1127,-4 1098,-16 1065,-16C1032,-16 1004,-4 981,19C958,42 946,69 946,102l0,494l-586,0l0,-494C360,69 349,41 326,18C303,-5 275,-16 242,-16C209,-16 181,-4 158,19C135,42 123,69 123,102z"
   horiz-adv-x="1306"
   unicode="H" />
<glyph
   id="glyph92"
   d="M123,102l0,1174C123,1309 135,1338 158,1361C181,1384 209,1395 242,1395C275,1395 303,1384 326,1361C349,1338 360,1309 360,1276l0,-1174C360,69 349,41 326,18C303,-5 275,-16 242,-16C209,-16 181,-4 158,19C135,42 123,69 123,102z"
   horiz-adv-x="483"
   unicode="I" />
<glyph
   id="glyph94"
   d="M31,123C31,152 41,177 62,198C83,219 108,229 137,229C150,229 166,226 184,219C237,198 286,188 332,188C397,188 445,210 476,254C507,297 522,356 522,430l0,846C522,1309 534,1338 557,1361C580,1384 608,1395 641,1395C674,1395 702,1384 725,1361C748,1338 760,1309 760,1276l0,-846C760,362 752,301 737,248C721,194 697,146 664,104C631,62 587,30 531,7C474,-16 408,-27 332,-27C289,-27 245,-22 199,-11C152,-1 115,12 88,29C50,48 31,80 31,123z"
   horiz-adv-x="882"
   unicode="J" />
<glyph
   id="glyph96"
   d="M123,102l0,1174C123,1309 135,1338 158,1361C181,1384 209,1395 242,1395C275,1395 303,1384 326,1361C349,1338 360,1309 360,1276l0,-469l492,549C876,1382 905,1395 938,1395C969,1395 996,1384 1019,1361C1042,1338 1053,1311 1053,1280C1053,1251 1043,1225 1022,1202l-385,-418l453,-616C1105,149 1112,127 1112,100C1112,69 1100,42 1077,19C1054,-4 1026,-16 995,-16C954,-16 922,1 899,35l-422,583l-117,-122l0,-394C360,69 349,41 326,18C303,-5 275,-16 242,-16C209,-16 181,-4 158,19C135,42 123,69 123,102z"
   horiz-adv-x="1138"
   unicode="K" />
<glyph
   id="glyph98"
   d="M123,115l0,1161C123,1309 135,1338 158,1361C181,1384 209,1395 242,1395C275,1395 303,1384 326,1361C349,1338 360,1309 360,1276l0,-1055l486,0C879,221 907,210 929,189C950,168 961,142 961,111C961,79 950,53 929,32C908,11 880,0 846,0l-606,0C206,0 178,11 156,33C134,54 123,82 123,115z"
   horiz-adv-x="1005"
   unicode="L" />
<glyph
   id="glyph100"
   d="M113,100l0,1178C113,1309 125,1337 148,1360C171,1383 198,1395 229,1395C275,1395 310,1373 334,1329l434,-778l434,778C1226,1373 1261,1395 1307,1395C1338,1395 1366,1383 1389,1360C1412,1337 1423,1309 1423,1278l0,-1178C1423,69 1412,42 1389,19C1366,-4 1338,-16 1307,-16C1276,-16 1248,-4 1225,19C1202,42 1190,69 1190,100l0,746l-322,-572C847,236 814,217 768,217C722,217 689,236 668,274l-322,572l0,-746C346,69 334,42 311,19C288,-4 260,-16 229,-16C198,-16 171,-4 148,19C125,42 113,69 113,100z"
   horiz-adv-x="1546"
   unicode="M" />
<glyph
   id="glyph102"
   d="M113,100l0,1178C113,1309 125,1337 148,1360C171,1383 198,1395 229,1395C271,1395 303,1379 324,1346l606,-879l0,811C930,1309 942,1337 965,1360C988,1383 1016,1395 1047,1395C1078,1395 1106,1383 1129,1360C1152,1337 1163,1309 1163,1278l0,-1178C1163,69 1152,42 1129,19C1106,-4 1078,-16 1047,-16C1004,-16 972,1 950,35l-604,872l0,-807C346,69 334,42 311,19C288,-4 260,-16 229,-16C198,-16 171,-4 148,19C125,42 113,69 113,100z"
   horiz-adv-x="1275"
   unicode="N" />
<glyph
   id="glyph104"
   d="M70,688C70,927 126,1107 237,1227C348,1347 509,1407 719,1407C929,1407 1090,1347 1201,1227C1312,1107 1368,927 1368,688C1368,451 1312,273 1201,152C1089,31 928,-29 719,-29C510,-29 349,31 238,152C126,273 70,451 70,688M315,688C315,352 450,184 719,184C988,184 1122,352 1122,688C1122,858 1089,985 1022,1069C955,1152 854,1194 719,1194C450,1194 315,1025 315,688z"
   horiz-adv-x="1437"
   unicode="O" />
<glyph
   id="glyph106"
   d="M123,102l0,1158C123,1293 135,1321 158,1344C181,1367 209,1378 242,1378l391,0C760,1378 863,1342 943,1271C1023,1200 1063,1095 1063,958C1063,821 1023,717 944,645C864,573 760,537 633,537l-273,0l0,-435C360,69 349,41 326,18C303,-5 275,-16 242,-16C209,-16 181,-4 158,19C135,42 123,69 123,102M360,750l254,0C678,750 728,768 764,805C799,841 817,892 817,958C817,1025 799,1076 763,1112C727,1147 677,1165 614,1165l-254,0z"
   horiz-adv-x="1130"
   unicode="P" />
<glyph
   id="glyph108"
   d="M70,688C70,927 126,1107 237,1227C348,1347 509,1407 719,1407C929,1407 1090,1347 1201,1227C1312,1107 1368,927 1368,688C1368,544 1345,421 1300,318C1254,215 1189,135 1106,80C1139,76 1173,66 1208,49C1242,32 1267,13 1282,-8C1300,-32 1309,-57 1309,-82C1309,-113 1298,-141 1276,-164C1253,-187 1225,-199 1192,-199C1161,-199 1133,-187 1110,-164C1075,-129 1043,-103 1015,-86C987,-69 949,-56 902,-45C855,-35 794,-30 719,-29C510,-29 349,31 238,152C126,273 70,451 70,688M315,688C315,352 450,184 719,184C988,184 1122,352 1122,688C1122,858 1089,985 1022,1069C955,1152 854,1194 719,1194C450,1194 315,1025 315,688z"
   horiz-adv-x="1437"
   unicode="Q" />
<glyph
   id="glyph110"
   d="M123,102l0,1158C123,1293 135,1321 158,1344C181,1367 209,1378 242,1378l391,0C722,1378 800,1358 867,1319C933,1279 983,1227 1016,1163C1049,1099 1065,1028 1065,950C1065,884 1053,822 1028,764C1003,705 967,656 918,616C869,575 813,551 750,543l303,-369C1069,152 1077,128 1077,102C1077,69 1066,42 1043,19C1020,-4 991,-16 958,-16C918,-16 887,-2 866,27l-372,501l-134,0l0,-426C360,69 349,41 326,18C303,-5 275,-16 242,-16C209,-16 181,-4 158,19C135,42 123,69 123,102M360,737l277,0C697,737 742,758 773,799C804,840 819,891 819,950C819,1011 803,1062 772,1103C741,1144 694,1165 631,1165l-271,0z"
   horiz-adv-x="1146"
   unicode="R" />
<glyph
   id="glyph112"
   d="M59,279C59,309 70,335 92,357C113,378 139,389 168,389C198,389 228,374 258,344C362,240 474,188 594,188C778,188 870,251 870,377C870,409 862,437 845,462C828,487 805,507 776,524C747,541 713,556 676,570C639,584 599,598 558,611C517,624 476,639 435,654C394,669 354,687 317,709C280,731 247,756 218,784C189,812 166,847 149,890C132,932 123,979 123,1032C123,1141 163,1230 243,1301C322,1372 439,1407 594,1407C696,1407 789,1390 872,1355C955,1320 1018,1273 1059,1214C1072,1194 1079,1172 1079,1149C1079,1119 1068,1093 1047,1072C1025,1051 999,1040 969,1040C942,1040 913,1055 881,1085C848,1117 806,1143 755,1164C704,1184 650,1194 594,1194C515,1194 456,1179 418,1148C379,1117 360,1078 360,1032C360,1003 369,978 386,956C403,934 426,915 455,900C484,885 517,870 554,857C591,844 631,830 672,817C713,803 755,788 796,773C837,757 877,738 914,715C951,692 985,665 1014,636C1043,606 1066,569 1083,525C1100,481 1108,432 1108,377C1108,250 1064,150 976,79C888,7 761,-29 594,-29C479,-29 374,-5 281,44C188,93 119,152 76,221C65,239 59,258 59,279z"
   horiz-adv-x="1173"
   unicode="S" />
<glyph
   id="glyph114"
   d="M147,1378l865,0C1041,1378 1065,1368 1086,1348C1106,1327 1116,1303 1116,1274C1116,1245 1106,1221 1086,1200C1065,1179 1041,1169 1012,1169l-314,0l0,-1067C698,69 687,41 664,18C641,-5 613,-16 580,-16C547,-16 519,-4 496,19C473,42 461,69 461,102l0,1067l-314,0C118,1169 94,1179 74,1200C53,1221 43,1245 43,1274C43,1303 53,1327 74,1348C94,1368 118,1378 147,1378z"
   horiz-adv-x="1159"
   unicode="T" />
<glyph
   id="glyph116"
   d="M123,451l0,825C123,1309 135,1338 158,1361C181,1384 209,1395 242,1395C275,1395 303,1384 326,1361C349,1338 360,1309 360,1276l0,-825C360,416 364,384 372,355C380,326 394,297 413,270C432,242 460,220 499,204C538,188 584,180 639,180C694,180 740,188 779,204C818,220 847,242 866,270C885,297 898,326 906,355C914,384 918,416 918,451l0,825C918,1309 930,1338 953,1361C976,1384 1003,1395 1036,1395C1069,1395 1098,1384 1121,1361C1144,1338 1155,1309 1155,1276l0,-825C1155,401 1151,354 1142,311C1133,268 1116,225 1092,182C1068,139 1037,103 1000,73C963,42 913,18 852,-1C790,-20 719,-29 639,-29C559,-29 488,-20 427,-1C365,18 315,42 278,73C241,103 210,139 186,182C162,225 146,268 137,311C128,354 123,401 123,451z"
   horiz-adv-x="1267"
   unicode="U" />
<glyph
   id="glyph118"
   d="M39,1276C39,1309 51,1338 74,1361C97,1384 125,1395 158,1395C185,1395 209,1388 228,1374C247,1360 259,1344 266,1325l357,-944l356,944C986,1343 999,1359 1018,1374C1037,1388 1060,1395 1087,1395C1120,1395 1148,1384 1171,1361C1194,1338 1206,1309 1206,1276C1206,1259 1203,1244 1198,1231l-465,-1172C714,9 677,-16 623,-16C568,-16 531,9 512,59l-465,1172C42,1244 39,1259 39,1276z"
   horiz-adv-x="1245"
   unicode="V" />
<glyph
   id="glyph120"
   d="M39,1276C39,1309 51,1338 74,1361C97,1384 125,1395 158,1395C188,1395 213,1387 232,1370C251,1353 264,1334 270,1313l240,-860l233,856C750,1335 764,1356 786,1372C808,1387 832,1395 858,1395C884,1395 908,1387 930,1372C952,1356 966,1335 973,1309l233,-856l240,860C1452,1334 1465,1353 1485,1370C1504,1387 1529,1395 1559,1395C1592,1395 1620,1384 1643,1361C1666,1338 1677,1309 1677,1276C1677,1263 1675,1251 1671,1239l-350,-1173C1314,42 1300,22 1279,7C1258,-8 1234,-16 1208,-16C1181,-16 1157,-8 1136,9C1115,25 1101,46 1094,72l-236,839l-235,-839C616,46 602,25 581,9C560,-8 535,-16 508,-16C482,-16 459,-8 438,7C417,22 402,42 395,66l-350,1173C41,1251 39,1263 39,1276z"
   horiz-adv-x="1716"
   unicode="W" />
<glyph
   id="glyph122"
   d="M23,102C23,128 30,150 43,168l383,537l-356,501C55,1228 47,1251 47,1276C47,1309 59,1338 82,1361C105,1384 133,1395 166,1395C207,1395 239,1379 262,1346l293,-437l293,437C871,1379 903,1395 944,1395C977,1395 1006,1384 1029,1361C1052,1338 1063,1309 1063,1276C1063,1251 1055,1228 1040,1206l-356,-501l383,-537C1080,150 1087,128 1087,102C1087,69 1076,41 1053,18C1030,-5 1002,-16 969,-16C928,-16 895,2 870,37l-315,467l-315,-467C215,2 182,-16 141,-16C108,-16 81,-5 58,18C35,41 23,69 23,102z"
   horiz-adv-x="1110"
   unicode="X" />
<glyph
   id="glyph124"
   d="M39,1276C39,1309 51,1338 74,1361C97,1384 125,1395 158,1395C200,1395 233,1376 258,1339l309,-485l310,485C900,1376 933,1395 977,1395C1010,1395 1038,1384 1061,1361C1084,1338 1096,1309 1096,1276C1096,1250 1090,1229 1077,1212l-391,-583l0,-527C686,69 675,42 652,19C629,-4 600,-16 567,-16C534,-16 507,-5 484,18C461,41 449,69 449,102l0,527l-392,583C45,1228 39,1249 39,1276z"
   horiz-adv-x="1134"
   unicode="Y" />
<glyph
   id="glyph126"
   d="M31,106C31,131 38,152 51,170l688,999l-563,0C147,1169 123,1179 103,1200C82,1221 72,1245 72,1274C72,1303 82,1327 103,1348C123,1368 147,1378 176,1378l774,0C979,1378 1003,1368 1024,1348C1045,1327 1055,1303 1055,1274C1055,1252 1049,1232 1036,1214l-686,-1001l625,0C1004,213 1029,203 1050,182C1071,161 1081,135 1081,106C1081,77 1071,52 1050,31C1029,10 1004,0 975,0l-838,0C108,0 83,10 62,31C41,52 31,77 31,106z"
   horiz-adv-x="1107"
   unicode="Z" />
<glyph
   id="glyph128"
   d="M123,-193l0,1598C123,1435 134,1460 155,1481C176,1501 203,1511 236,1511l192,0C455,1511 477,1502 496,1483C515,1464 524,1442 524,1415C524,1388 515,1366 496,1347C477,1328 455,1319 428,1319l-84,0l0,-1425l84,0C455,-106 477,-115 496,-134C515,-153 524,-176 524,-203C524,-230 515,-252 496,-271C477,-290 455,-299 428,-299l-192,0C203,-299 176,-289 155,-269C134,-249 123,-224 123,-193z"
   horiz-adv-x="579"
   unicode="[" />
<glyph
   id="glyph130"
   d="M53,1427C53,1458 64,1484 86,1506C107,1527 133,1538 164,1538C186,1538 207,1532 226,1520C245,1507 259,1489 268,1466l535,-1513C808,-61 811,-75 811,-90C811,-121 800,-147 779,-168C757,-190 731,-201 700,-201C678,-201 657,-195 638,-182C619,-170 605,-152 596,-129l-535,1513C56,1398 53,1412 53,1427z"
   horiz-adv-x="864"
   unicode="\" />
<glyph
   id="glyph132"
   d="M152,-106l84,0l0,1425l-84,0C125,1319 103,1328 84,1347C65,1366 55,1388 55,1415C55,1442 65,1464 84,1483C103,1502 125,1511 152,1511l192,0C377,1511 404,1501 425,1481C446,1460 457,1435 457,1405l0,-1598C457,-224 446,-249 425,-269C404,-289 377,-299 344,-299l-192,0C125,-299 103,-290 84,-271C65,-252 55,-230 55,-203C55,-176 65,-153 84,-134C103,-115 125,-106 152,-106z"
   horiz-adv-x="579"
   unicode="]" />
<glyph
   id="glyph134"
   d="M82,768C82,785 86,801 94,815l324,555C436,1400 463,1415 498,1415C533,1415 560,1400 578,1370l323,-555C909,801 913,785 913,768C913,743 904,721 885,702C866,683 844,674 819,674C801,674 785,678 770,687C755,696 744,707 737,721l-239,432l-240,-432C251,707 240,696 225,687C210,678 194,674 176,674C151,674 129,683 110,702C91,721 82,743 82,768z"
   horiz-adv-x="995"
   unicode="^" />
<glyph
   id="glyph136"
   d="M68,-63l729,0C822,-63 844,-72 863,-91C882,-110 891,-133 891,-158C891,-183 882,-205 863,-224C844,-243 822,-252 797,-252l-729,0C43,-252 21,-243 2,-224C-17,-205 -27,-183 -27,-158C-27,-133 -17,-110 2,-91C21,-72 43,-63 68,-63z"
   horiz-adv-x="862"
   unicode="_" />
<glyph
   id="glyph138"
   d="M254,1360C275,1381 297,1392 320,1393C343,1394 362,1385 377,1366l174,-221C563,1133 568,1119 567,1102C566,1085 557,1068 541,1053C510,1024 479,1024 446,1053l-200,184C229,1252 220,1271 221,1294C222,1317 233,1339 254,1360z"
   horiz-adv-x="786"
   unicode="`" />
<glyph
   id="glyph140"
   d="M55,283C55,374 87,444 151,495C214,546 293,571 387,571l268,0l0,37C655,655 639,692 606,720C573,748 528,762 469,762C429,762 393,755 361,741C329,727 297,708 264,684C245,671 224,664 203,664C176,664 154,673 135,692C116,711 106,733 106,760C106,785 115,807 133,827C212,914 324,958 469,958C596,958 696,928 767,868C838,808 874,724 874,616l0,-524C874,63 863,37 842,16C821,-5 795,-16 766,-16C737,-16 711,-5 690,16C668,37 657,63 657,92C608,13 518,-27 389,-27C289,-27 208,2 147,59C86,116 55,191 55,283M276,283C276,243 290,212 319,191C347,169 389,158 446,158C503,158 553,175 594,209C635,242 655,287 655,342l0,57l-239,0C371,399 337,389 313,369C288,349 276,320 276,283z"
   horiz-adv-x="966"
   unicode="a" />
<glyph
   id="glyph142"
   d="M102,383l0,965C102,1379 113,1405 135,1426C156,1447 182,1458 213,1458C244,1458 270,1447 292,1426C313,1405 324,1379 324,1348l0,-471C346,899 378,918 419,934C460,950 503,958 549,958C681,958 783,917 856,834C929,751 965,628 965,465C965,301 927,178 851,96C775,14 667,-27 526,-27C398,-27 295,8 218,79C141,150 102,251 102,383M324,383C324,314 343,260 380,221C417,182 465,162 526,162C597,162 652,188 689,239C726,290 745,365 745,465C745,566 726,642 689,693C651,744 597,770 526,770C503,770 481,767 459,760C436,753 417,744 402,734C386,723 372,713 360,703C348,692 339,683 333,676l-9,-10z"
   horiz-adv-x="1026"
   unicode="b" />
<glyph
   id="glyph144"
   d="M504,958C561,958 615,949 665,931C715,913 752,895 777,876C802,857 822,837 838,817C853,796 860,775 860,754C860,727 851,703 832,684C813,665 789,655 762,655C733,655 707,667 686,690C637,743 576,770 504,770C433,770 378,744 340,691C302,638 283,564 283,467C283,368 302,293 340,241C378,188 433,162 504,162C533,162 561,167 590,177C618,187 639,197 653,206C666,215 684,227 707,244C726,257 747,264 768,264C795,264 819,255 838,236C857,217 866,193 866,166C866,137 854,111 831,90C799,61 755,34 699,10C643,-15 578,-27 504,-27C362,-27 252,14 175,97C98,180 59,303 59,467C59,631 98,754 175,836C252,917 361,958 504,958z"
   horiz-adv-x="923"
   unicode="c" />
<glyph
   id="glyph146"
   d="M59,465C59,628 95,751 168,834C241,917 343,958 475,958C521,958 565,950 606,934C647,918 678,899 700,877l0,471C700,1379 711,1405 733,1426C754,1447 780,1458 811,1458C842,1458 868,1447 890,1426C911,1405 922,1379 922,1348l0,-965C922,251 883,150 806,79C729,8 626,-27 498,-27C357,-27 249,14 173,96C97,178 59,301 59,465M279,465C279,365 298,290 335,239C372,188 427,162 498,162C559,162 608,182 645,221C682,260 700,314 700,383l0,283C698,669 695,672 691,677C687,682 678,690 665,702C651,714 637,725 622,734C607,743 589,752 566,759C543,766 521,770 498,770C427,770 373,744 336,693C298,642 279,566 279,465z"
   horiz-adv-x="1013"
   unicode="d" />
<glyph
   id="glyph148"
   d="M61,469C61,625 100,746 178,831C255,916 364,958 504,958C570,958 628,948 679,929C730,909 769,885 798,856C827,827 850,794 868,755C886,716 898,681 904,648C910,615 913,583 913,551C913,530 913,515 912,504C911,493 909,478 905,461C900,444 894,431 886,422C878,413 866,405 849,398C832,391 812,387 788,387l-505,0C283,316 305,263 349,227C393,190 451,172 522,172C594,172 662,193 725,236C749,251 771,258 791,258C818,258 840,249 859,230C878,211 887,189 887,162C887,132 875,107 852,86C836,71 816,56 793,41C769,26 732,11 682,-4C632,-19 579,-27 522,-27C375,-27 262,14 182,96C101,178 61,302 61,469M289,571l405,0C694,626 678,673 646,712C613,751 566,770 504,770C443,770 393,753 354,719C315,684 294,635 289,571z"
   horiz-adv-x="964"
   unicode="e" />
<glyph
   id="glyph150"
   d="M125,930l43,0l0,110C168,1105 182,1165 210,1219C237,1272 281,1316 342,1351C402,1386 474,1403 559,1403C586,1403 608,1394 627,1375C646,1356 655,1334 655,1307C655,1280 646,1258 627,1239C608,1220 586,1210 559,1210C504,1210 462,1196 433,1169C404,1141 389,1104 389,1057l0,-127l137,0C551,930 573,921 591,903C609,885 618,863 618,838C618,813 609,791 591,773C573,754 551,745 526,745l-137,0l0,-655C389,60 378,35 357,15C336,-6 310,-16 279,-16C246,-16 220,-6 199,14C178,34 168,59 168,90l0,655l-43,0C100,745 78,754 60,773C42,791 33,813 33,838C33,863 42,885 60,903C78,921 100,930 125,930z"
   horiz-adv-x="659"
   unicode="f" />
<glyph
   id="glyph152"
   d="M51,-109C51,-26 92,41 174,92C110,132 78,187 78,256C78,311 101,357 147,395C104,451 82,522 82,608C82,717 118,802 189,865C260,927 358,958 483,958C560,958 626,947 680,924C730,987 798,1018 885,1018C910,1018 932,1009 950,991C968,973 977,951 977,926C977,901 968,879 950,861C932,843 910,834 885,834C858,834 838,828 823,815C864,760 885,691 885,608C885,499 850,414 779,352C708,289 609,258 483,258C413,258 349,269 291,291C278,280 272,266 272,248C272,201 312,178 393,178l191,0C639,178 688,173 733,163C778,153 818,137 853,116C888,95 916,66 936,29C955,-8 965,-52 965,-102C965,-203 923,-279 839,-332C754,-385 644,-412 508,-412C461,-412 416,-409 375,-404C333,-399 292,-389 251,-374C210,-360 176,-342 147,-319C118,-297 95,-268 78,-232C60,-197 51,-156 51,-109M272,-109C272,-185 351,-223 510,-223C577,-223 632,-213 677,-192C721,-172 743,-142 743,-102C743,-70 728,-45 699,-28C670,-11 631,-2 584,-2l-193,0C354,-10 325,-24 304,-44C283,-64 272,-86 272,-109M351,726C319,695 303,655 303,608C303,561 319,522 351,491C383,460 427,444 483,444C539,444 583,460 616,491C648,522 664,561 664,608C664,655 648,695 616,726C583,757 539,772 483,772C427,772 383,757 351,726z"
   horiz-adv-x="1017"
   unicode="g" />
<glyph
   id="glyph154"
   d="M102,90l0,1258C102,1379 113,1405 135,1426C156,1447 182,1458 213,1458C244,1458 270,1447 292,1426C313,1405 324,1379 324,1348l0,-512C347,870 380,899 425,923C469,946 523,958 586,958C815,958 930,839 930,602l0,-512C930,60 919,35 898,15C876,-6 850,-16 819,-16C786,-16 760,-6 740,14C719,34 709,59 709,90l0,471C709,692 649,758 528,758C392,758 324,688 324,547l0,-457C324,59 313,34 292,14C271,-6 244,-16 213,-16C182,-16 155,-6 134,14C113,34 102,59 102,90z"
   horiz-adv-x="1021"
   unicode="h" />
<glyph
   id="glyph156"
   d="M92,1186C92,1276 136,1321 223,1321C312,1321 356,1276 356,1186C356,1145 345,1114 322,1091C299,1068 266,1057 223,1057C181,1057 149,1069 126,1092C103,1115 92,1146 92,1186M113,94l0,742C113,867 124,893 145,914C166,935 192,946 223,946C254,946 280,935 302,914C323,893 334,867 334,836l0,-742C334,63 323,37 302,16C280,-5 254,-16 223,-16C192,-16 166,-5 145,16C124,37 113,63 113,94z"
   horiz-adv-x="436"
   unicode="i" />
<glyph
   id="glyph158"
   d="M2,-135C35,-135 61,-123 82,-100C103,-77 113,-49 113,-16l0,852C113,867 124,893 145,914C166,935 192,946 223,946C254,946 280,935 302,914C323,893 334,867 334,836l0,-852C334,-108 303,-185 240,-247C177,-309 98,-340 2,-340C-25,-340 -49,-330 -69,-309C-90,-289 -100,-265 -100,-238C-100,-211 -90,-187 -69,-166C-49,-145 -25,-135 2,-135M92,1186C92,1276 136,1321 223,1321C312,1321 356,1276 356,1186C356,1145 345,1114 322,1091C299,1068 266,1057 223,1057C181,1057 149,1069 126,1092C103,1115 92,1146 92,1186z"
   horiz-adv-x="436"
   unicode="j" />
<glyph
   id="glyph160"
   d="M113,90l0,1262C113,1383 124,1408 145,1428C166,1448 192,1458 223,1458C254,1458 280,1448 302,1428C323,1407 334,1382 334,1352l0,-723l371,291C728,937 752,946 776,946C805,946 831,936 852,915C873,894 883,869 883,840C883,804 869,776 842,756l-269,-205l301,-395C889,134 897,112 897,90C897,61 887,36 866,15C845,-6 820,-16 791,-16C754,-16 726,-2 705,27l-306,409l-65,-51l0,-295C334,60 323,35 302,15C280,-6 254,-16 223,-16C192,-16 166,-6 145,14C124,34 113,59 113,90z"
   horiz-adv-x="927"
   unicode="k" />
<glyph
   id="glyph162"
   d="M113,246l0,1102C113,1379 124,1405 145,1426C166,1447 192,1458 223,1458C254,1458 280,1447 302,1426C323,1405 334,1379 334,1348l0,-1123C334,214 338,205 347,198C356,191 364,188 373,188C402,188 426,178 446,159C465,139 475,115 475,86C475,57 465,33 446,14C426,-6 402,-16 373,-16C292,-16 228,7 182,52C136,97 113,161 113,246z"
   horiz-adv-x="497"
   unicode="l" />
<glyph
   id="glyph164"
   d="M102,90l0,746C102,867 113,893 135,914C156,935 182,946 213,946C244,946 270,935 292,914C313,893 324,867 324,836C347,870 380,899 425,923C469,946 523,958 586,958C665,958 729,947 777,924C824,901 862,868 889,825C923,870 963,903 1010,925C1057,947 1114,958 1182,958C1236,958 1284,951 1326,938C1367,925 1401,907 1427,885C1453,862 1474,835 1491,804C1508,773 1519,741 1526,708C1533,675 1536,640 1536,602l0,-512C1536,60 1525,35 1504,15C1482,-6 1456,-16 1425,-16C1392,-16 1366,-6 1346,14C1325,34 1315,59 1315,90l0,471C1315,692 1255,758 1135,758C1064,758 1013,741 980,706C947,671 930,624 930,563l0,-473C930,60 919,35 898,15C876,-6 850,-16 819,-16C786,-16 760,-6 740,14C719,34 709,59 709,90l0,471C709,692 649,758 528,758C392,758 324,688 324,547l0,-457C324,59 313,34 292,14C271,-6 244,-16 213,-16C182,-16 155,-6 134,14C113,34 102,59 102,90z"
   horiz-adv-x="1628"
   unicode="m" />
<glyph
   id="glyph166"
   d="M102,90l0,746C102,867 113,893 135,914C156,935 182,946 213,946C244,946 270,935 292,914C313,893 324,867 324,836C347,870 380,899 425,923C469,946 523,958 586,958C815,958 930,839 930,602l0,-512C930,60 919,35 898,15C876,-6 850,-16 819,-16C786,-16 760,-6 740,14C719,34 709,59 709,90l0,471C709,692 649,758 528,758C392,758 324,688 324,547l0,-457C324,59 313,34 292,14C271,-6 244,-16 213,-16C182,-16 155,-6 134,14C113,34 102,59 102,90z"
   horiz-adv-x="1021"
   unicode="n" />
<glyph
   id="glyph168"
   d="M59,465C59,629 98,752 177,835C256,917 366,958 508,958C650,958 760,917 839,835C917,752 956,629 956,465C956,302 917,179 838,97C759,14 649,-27 508,-27C367,-27 257,14 178,97C99,179 59,302 59,465M283,465C283,365 302,290 340,239C378,188 434,162 508,162C582,162 638,188 676,239C714,290 733,365 733,465C733,668 658,770 508,770C358,770 283,668 283,465z"
   horiz-adv-x="1015"
   unicode="o" />
<glyph
   id="glyph170"
   d="M113,-301l0,1137C113,867 124,893 145,914C166,935 192,946 223,946C254,946 280,935 302,914C323,893 334,867 334,836C352,866 384,894 429,920C474,945 522,958 575,958C711,958 814,917 885,836C956,755 991,632 991,467C991,302 955,179 884,97C813,14 710,-27 575,-27C524,-27 478,-19 435,-3C392,12 359,34 334,61l0,-362C334,-332 323,-358 302,-379C280,-401 254,-412 223,-412C192,-412 166,-401 145,-379C124,-358 113,-332 113,-301M328,465C328,365 347,290 384,239C421,188 475,162 547,162C619,162 674,188 711,239C748,290 766,365 766,465C766,668 693,770 547,770C401,770 328,668 328,465z"
   horiz-adv-x="1052"
   unicode="p" />
<glyph
   id="glyph172"
   d="M61,467C61,631 99,754 175,836C251,917 359,958 500,958C628,958 731,923 808,853C885,782 924,681 924,549l0,-850C924,-332 913,-358 892,-379C870,-401 844,-412 813,-412C782,-412 756,-401 735,-379C713,-358 702,-332 702,-301l0,356C679,32 648,13 607,-3C566,-19 523,-27 477,-27C345,-27 243,15 170,98C97,181 61,304 61,467M281,467C281,366 300,290 338,239C375,188 429,162 500,162C523,162 545,166 568,173C590,180 609,188 625,199C640,209 654,219 666,230C678,240 687,249 693,256l9,10l0,283C702,618 684,673 647,712C610,751 561,770 500,770C429,770 374,745 337,694C300,643 281,567 281,467z"
   horiz-adv-x="1011"
   unicode="q" />
<glyph
   id="glyph174"
   d="M102,94l0,742C102,867 113,893 135,914C156,935 182,946 213,946C244,946 270,935 292,914C313,893 324,867 324,836l0,-11C343,864 374,896 416,920C458,944 501,956 545,956C574,956 598,946 619,926C639,905 649,881 649,852C649,823 639,799 619,779C598,758 574,748 545,748C476,748 422,727 383,686C344,645 324,589 324,520l0,-426C324,63 313,37 292,16C270,-5 244,-16 213,-16C182,-16 156,-5 135,16C113,37 102,63 102,94z"
   horiz-adv-x="663"
   unicode="r" />
<glyph
   id="glyph176"
   d="M53,184C53,211 63,234 83,254C102,273 125,283 152,283C173,283 194,275 215,258C284,202 359,174 440,174C541,174 592,201 592,256C592,275 585,293 571,308C556,323 537,335 514,344C490,353 463,362 433,373C403,383 372,393 341,402C310,411 279,423 249,440C219,456 192,474 169,494C145,514 126,540 112,573C97,606 90,643 90,684C90,772 122,840 187,887C251,934 333,958 432,958C503,958 568,946 629,922C690,898 735,868 764,831C777,813 784,793 784,770C784,743 774,720 755,701C736,682 713,672 686,672C666,672 643,681 616,700C556,744 495,766 432,766C393,766 364,759 343,746C322,733 311,713 311,688C311,668 320,650 339,635C358,620 382,607 411,597C440,586 473,576 509,566C545,555 581,542 617,527C653,512 686,494 715,473C744,452 768,425 787,390C806,355 815,314 815,268C815,175 780,103 710,53C640,2 550,-23 440,-23C359,-23 286,-8 221,22C156,51 108,84 78,121C61,142 53,163 53,184z"
   horiz-adv-x="870"
   unicode="s" />
<glyph
   id="glyph178"
   d="M127,930l47,0l0,172C174,1131 185,1157 207,1178C228,1199 254,1210 283,1210C312,1210 338,1199 359,1178C380,1157 391,1131 391,1102l0,-172l92,0C508,930 530,921 548,903C566,885 575,863 575,838C575,813 566,791 548,773C530,754 508,745 483,745l-92,0l0,-495C391,228 399,210 415,197C431,183 449,176 469,176C496,176 518,167 537,148C556,129 565,107 565,80C565,53 556,31 537,12C518,-7 496,-16 469,-16C379,-16 307,10 254,62C201,113 174,180 174,262l0,483l-47,0C102,745 80,754 62,773C44,791 35,813 35,838C35,863 44,885 62,903C80,921 102,930 127,930z"
   horiz-adv-x="626"
   unicode="t" />
<glyph
   id="glyph180"
   d="M92,358l0,478C92,867 103,893 125,914C146,935 172,946 203,946C234,946 260,935 281,914C302,893 313,867 313,836l0,-478C313,303 327,258 354,225C381,191 429,174 498,174C619,174 680,235 680,358l0,478C680,867 691,893 713,914C734,935 760,946 791,946C822,946 848,935 869,914C890,893 901,867 901,836l0,-478C901,303 895,255 884,212C872,169 852,129 824,92C795,54 754,25 699,4C644,-17 577,-27 498,-27C434,-27 378,-20 330,-6C281,8 242,27 213,50C183,73 159,102 141,136C122,170 110,205 103,240C96,275 92,315 92,358z"
   horiz-adv-x="993"
   unicode="u" />
<glyph
   id="glyph182"
   d="M25,836C25,867 36,893 57,914C78,935 104,946 135,946C162,946 185,939 202,925C219,910 231,894 238,877l225,-570l225,570C695,894 707,910 724,925C741,939 764,946 791,946C822,946 848,935 869,914C890,893 901,867 901,836C901,821 898,806 893,793l-328,-742C556,30 542,14 525,2C507,-10 486,-16 463,-16C440,-16 419,-10 401,2C383,14 369,30 360,51l-327,742C28,806 25,821 25,836z"
   horiz-adv-x="925"
   unicode="v" />
<glyph
   id="glyph184"
   d="M25,836C25,867 36,893 57,914C78,935 104,946 135,946C159,946 181,940 200,927C219,914 232,896 240,874l170,-503l137,495C553,887 565,906 584,922C602,938 625,946 653,946C679,946 702,939 721,924C740,909 753,891 758,872l137,-501l168,503C1071,897 1085,914 1104,927C1123,940 1144,946 1169,946C1200,946 1227,936 1248,916C1269,896 1280,871 1280,840C1280,827 1277,812 1270,797l-281,-744C972,7 938,-16 887,-16C862,-16 840,-9 821,6C801,20 787,38 780,61l-127,449l-127,-447C519,40 506,21 487,6C467,-9 445,-16 420,-16C396,-16 375,-9 356,4C337,17 323,34 315,55l-280,731C28,801 25,818 25,836z"
   horiz-adv-x="1302"
   unicode="w" />
<glyph
   id="glyph186"
   d="M33,94C33,117 40,140 55,162l248,311l-240,295C48,789 41,812 41,836C41,867 52,893 74,914C95,935 121,946 152,946C189,946 219,932 240,903l192,-264l193,264C646,932 676,946 713,946C744,946 770,935 791,914C812,893 823,867 823,836C823,812 816,789 801,768l-240,-295l248,-311C824,140 831,117 831,94C831,63 820,37 799,16C778,-5 752,-16 721,-16C682,-16 653,-2 633,27l-201,282C340,180 273,86 231,27C211,-2 182,-16 143,-16C112,-16 86,-5 65,16C44,37 33,63 33,94z"
   horiz-adv-x="864"
   unicode="x" />
<glyph
   id="glyph188"
   d="M88,-207C149,-207 198,-185 235,-141C272,-98 310,-29 348,66l-315,727C28,806 25,821 25,836C25,867 36,893 57,914C78,935 104,946 135,946C162,946 185,939 202,925C219,910 231,894 238,877l225,-570l225,570C695,894 707,910 724,925C741,939 764,946 791,946C822,946 848,935 869,914C890,893 901,867 901,836C901,821 898,806 893,793l-381,-861C409,-297 268,-412 88,-412C58,-412 33,-402 13,-382C-8,-363 -18,-338 -18,-309C-18,-280 -8,-255 13,-236C33,-217 58,-207 88,-207z"
   horiz-adv-x="925"
   unicode="y" />
<glyph
   id="glyph190"
   d="M35,94C35,116 42,137 57,156l441,589l-346,0C127,745 105,754 87,773C68,791 59,813 59,838C59,863 68,885 87,903C105,921 127,930 152,930l526,0C705,930 728,920 747,901C766,881 776,858 776,831C776,808 769,787 754,768l-432,-580l372,0C719,188 741,179 760,160C779,141 788,119 788,94C788,69 779,47 760,28C741,9 719,0 694,0l-565,0C104,0 82,9 63,28C44,47 35,69 35,94z"
   horiz-adv-x="837"
   unicode="z" />
<glyph
   id="glyph192"
   d="M147,692C193,692 227,701 249,718C270,735 281,769 281,819C281,862 276,929 265,1019C254,1109 248,1180 248,1233C248,1308 275,1374 329,1429C382,1484 462,1511 567,1511C594,1511 618,1501 638,1482C658,1462 668,1438 668,1411C668,1384 658,1360 638,1341C618,1321 594,1311 567,1311C536,1311 513,1302 496,1285C479,1268 471,1244 471,1214C471,1170 474,1112 480,1040C486,967 489,914 489,879C489,803 478,744 456,702C434,659 397,627 344,606C397,585 434,553 456,511C478,469 489,410 489,334C489,299 486,246 480,173C474,100 471,42 471,-2C471,-32 479,-55 496,-72C512,-89 536,-98 567,-98C594,-98 618,-108 638,-128C658,-148 668,-172 668,-199C668,-226 658,-250 638,-269C618,-289 594,-299 567,-299C512,-299 464,-291 422,-274C380,-258 347,-236 322,-209C297,-182 279,-153 267,-121C254,-89 248,-55 248,-20C248,33 254,104 265,194C276,283 281,350 281,393C281,443 270,477 249,494C227,511 193,520 147,520C124,520 104,529 87,546C70,563 61,583 61,606C61,629 70,650 87,667C104,684 124,692 147,692z"
   horiz-adv-x="733"
   unicode="{" />
<glyph
   id="glyph194"
   d="M113,-215l0,1757C113,1573 124,1599 146,1622C168,1644 194,1655 225,1655C256,1655 282,1644 305,1622C327,1599 338,1573 338,1542l0,-1757C338,-246 327,-272 305,-294C282,-317 256,-328 225,-328C194,-328 168,-317 146,-294C124,-272 113,-246 113,-215z"
   horiz-adv-x="450"
   unicode="|" />
<glyph
   id="glyph196"
   d="M166,-98C197,-98 221,-89 238,-72C254,-55 262,-32 262,-2C262,42 259,100 253,173C247,246 244,299 244,334C244,410 255,469 277,511C299,553 336,585 389,606C336,627 299,659 277,702C255,744 244,803 244,879C244,914 247,967 253,1040C259,1112 262,1170 262,1214C262,1244 254,1268 237,1285C220,1302 197,1311 166,1311C139,1311 115,1321 96,1341C76,1360 66,1384 66,1411C66,1438 76,1462 96,1482C115,1501 139,1511 166,1511C271,1511 351,1484 405,1429C458,1374 485,1308 485,1233C485,1180 480,1109 469,1019C458,929 453,862 453,819C453,769 464,735 485,718C506,701 540,692 586,692C609,692 630,684 647,667C664,650 672,629 672,606C672,583 664,563 647,546C630,529 609,520 586,520C540,520 506,511 485,494C464,477 453,443 453,393C453,350 458,283 469,194C480,104 485,33 485,-20C485,-55 479,-89 467,-121C454,-153 436,-182 411,-209C386,-236 353,-258 311,-274C269,-291 221,-299 166,-299C139,-299 115,-289 96,-269C76,-250 66,-226 66,-199C66,-172 76,-148 96,-128C115,-108 139,-98 166,-98z"
   horiz-adv-x="733"
   unicode="}" />
<glyph
   id="glyph198"
   d="M49,565C49,578 51,590 55,602C70,648 99,687 142,719C185,750 240,766 307,766C347,766 389,756 434,736C478,716 519,696 557,677C595,657 626,647 651,647C685,647 710,663 727,696C734,711 745,723 760,734C775,745 792,750 813,750C840,750 862,741 881,722C900,703 909,680 909,653C909,640 907,628 903,616C888,570 859,531 816,500C773,469 718,453 651,453C620,453 587,459 552,472C517,484 488,498 464,513C439,528 413,542 384,555C355,567 329,573 307,573C286,573 271,569 260,560C249,551 240,539 231,522C224,507 214,495 199,485C184,474 166,469 145,469C118,469 96,478 77,497C58,516 49,538 49,565z"
   horiz-adv-x="958"
   unicode="~" />
<glyph
   id="glyph200"
   horiz-adv-x="602"
   unicode=" " />
<glyph
   id="glyph202"
   d="M84,825C84,914 129,958 219,958C308,958 352,914 352,825C352,734 308,688 219,688C129,688 84,734 84,825M92,-338l37,815C130,501 138,520 153,534C168,548 190,555 219,555C246,555 267,548 282,534C296,519 304,500 305,477l39,-815C346,-377 336,-405 314,-424C292,-443 260,-453 219,-453C177,-453 145,-443 123,-424C100,-405 90,-377 92,-338z"
   horiz-adv-x="434"
   unicode="¡" />
<glyph
   id="glyph204"
   d="M59,467C59,611 89,724 150,805C211,886 297,935 410,952l0,76C410,1055 419,1077 438,1096C457,1115 479,1124 504,1124C531,1124 553,1115 572,1096C591,1077 600,1055 600,1028l0,-80C657,937 706,918 746,893C786,868 817,842 838,817C853,796 860,775 860,754C860,727 851,703 832,684C813,665 789,655 762,655C733,655 707,667 686,690C637,743 576,770 504,770C433,770 378,744 340,691C302,638 283,564 283,467C283,368 302,293 340,241C378,188 433,162 504,162C533,162 562,167 590,177C617,186 638,196 652,205C666,214 684,227 707,244C726,257 747,264 768,264C795,264 819,255 838,236C857,217 866,193 866,166C866,137 854,111 831,90C768,34 691,-2 600,-18l0,-82C600,-127 591,-149 572,-168C553,-187 531,-197 504,-197C479,-197 457,-187 438,-168C419,-149 410,-127 410,-100l0,80C297,-3 211,46 150,128C89,209 59,322 59,467z"
   horiz-adv-x="923"
   unicode="¢" />
<glyph
   id="glyph206"
   d="M158,741l30,0C142,836 119,920 119,995C119,1112 162,1210 248,1289C333,1368 444,1407 580,1407C694,1407 792,1383 874,1335C955,1287 1014,1220 1051,1135C1056,1121 1059,1107 1059,1092C1059,1063 1048,1037 1027,1016C1005,994 979,983 950,983C907,983 873,1006 850,1051C795,1152 705,1202 580,1202C509,1202 452,1183 409,1144C366,1105 344,1055 344,995C344,952 351,912 364,873C377,834 397,790 422,741l293,0C744,741 768,731 788,712C807,692 817,668 817,639C817,610 807,586 788,567C768,547 744,537 715,537l-211,0C511,507 514,479 514,453C514,408 502,363 478,319C453,274 422,237 383,207C430,229 477,240 522,240C561,240 610,229 668,208C726,187 770,176 801,176C866,176 910,201 934,252C955,293 988,313 1034,313C1065,313 1091,302 1113,281C1134,260 1145,234 1145,203C1145,185 1141,168 1133,152C1074,30 967,-31 811,-31C771,-31 712,-16 635,14C558,44 498,59 455,59C422,59 394,55 372,47C350,39 324,25 295,4C272,-12 249,-20 225,-20C196,-20 170,-9 149,12C128,33 117,59 117,88C117,121 130,149 156,172C250,257 297,345 297,436C297,468 292,502 281,537l-123,0C129,537 105,547 85,567C65,586 55,610 55,639C55,668 65,692 85,712C105,731 129,741 158,741z"
   horiz-adv-x="1200"
   unicode="£" />
<glyph
   id="glyph208"
   d="M39,313C39,343 50,369 72,391l57,55C98,498 82,561 82,635C82,708 100,772 135,827l-61,54C51,902 39,928 39,961C39,990 49,1015 70,1036C91,1057 116,1067 145,1067C172,1067 197,1057 221,1036l62,-61C338,1008 403,1024 479,1024C556,1024 621,1008 676,975l61,61C761,1057 786,1067 813,1067C842,1067 868,1057 889,1036C910,1015 920,990 920,961C920,928 908,902 885,881l-62,-54C859,770 877,706 877,635C877,562 861,499 829,446l58,-55C909,369 920,343 920,313C920,284 910,259 889,238C868,217 842,207 813,207C786,207 761,217 737,238l-57,57C623,262 556,246 479,246C402,246 336,262 279,295l-58,-57C197,217 172,207 145,207C116,207 91,217 70,238C49,259 39,284 39,313M293,635C293,582 310,537 345,500C380,463 424,444 479,444C534,444 579,463 614,500C649,537 666,582 666,635C666,689 649,734 614,771C579,807 534,825 479,825C424,825 380,807 345,771C310,734 293,689 293,635z"
   horiz-adv-x="958"
   unicode="¤" />
<glyph
   id="glyph210"
   d="M39,1276C39,1309 51,1338 74,1361C97,1384 125,1395 158,1395C200,1395 233,1376 258,1339l309,-485l310,485C900,1376 933,1395 977,1395C1010,1395 1038,1384 1061,1361C1084,1338 1096,1309 1096,1276C1096,1250 1090,1229 1077,1212l-350,-522l180,0C932,690 954,681 973,662C992,643 1001,621 1001,596C1001,571 992,549 973,530C954,511 932,502 907,502l-221,0l0,-84l221,0C932,418 954,409 973,390C992,371 1001,349 1001,324C1001,299 992,277 973,258C954,239 932,229 907,229l-221,0l0,-127C686,69 675,42 652,19C629,-4 600,-16 567,-16C534,-16 507,-5 484,18C461,41 449,69 449,102l0,127l-222,0C202,229 180,239 161,258C142,277 133,299 133,324C133,349 142,371 161,390C180,409 202,418 227,418l222,0l0,84l-222,0C202,502 180,511 161,530C142,549 133,571 133,596C133,621 142,643 161,662C180,681 202,690 227,690l181,0l-351,522C45,1228 39,1249 39,1276z"
   horiz-adv-x="1134"
   unicode="¥" />
<glyph
   id="glyph212"
   d="M113,-215l0,702C113,518 124,544 146,567C168,589 194,600 225,600C256,600 282,589 305,567C327,544 338,518 338,487l0,-702C338,-246 327,-272 305,-294C282,-317 256,-328 225,-328C194,-328 168,-317 146,-294C124,-272 113,-246 113,-215M113,842l0,700C113,1573 124,1599 146,1622C168,1644 194,1655 225,1655C256,1655 282,1644 305,1622C327,1599 338,1573 338,1542l0,-700C338,811 327,785 305,763C282,740 256,729 225,729C194,729 168,740 146,763C124,785 113,811 113,842z"
   horiz-adv-x="450"
   unicode="¦" />
<glyph
   id="glyph214"
   d="M47,584C47,677 87,757 166,823C105,889 74,966 74,1055C74,1155 112,1239 188,1306C264,1373 371,1407 510,1407C686,1407 827,1346 934,1225C949,1208 956,1186 956,1159C956,1130 946,1106 926,1086C905,1065 881,1055 852,1055C823,1055 797,1067 774,1090C698,1163 610,1200 510,1200C439,1200 387,1186 352,1158C317,1129 299,1095 299,1055C299,1016 311,983 336,954C361,925 393,902 432,884C471,865 515,848 562,831C609,814 657,794 704,772C751,750 795,725 834,696C873,667 905,629 930,581C955,532 967,476 967,412C967,318 927,238 848,172C909,106 940,29 940,-59C940,-159 902,-243 826,-310C750,-378 643,-412 504,-412C320,-412 179,-352 82,-231C65,-212 57,-189 57,-164C57,-135 67,-111 88,-90C109,-69 133,-59 162,-59C192,-59 219,-71 242,-94C316,-168 403,-205 504,-205C575,-205 628,-191 663,-162C698,-133 715,-99 715,-59C715,-20 703,13 678,42C653,71 621,94 582,113C543,131 499,149 452,166C405,183 357,202 310,224C263,246 219,271 180,300C141,329 109,367 84,416C59,464 47,520 47,584M264,584C264,551 275,520 297,493C319,465 349,441 386,422C423,403 461,386 498,372C535,358 574,344 615,330C656,315 686,303 705,293C735,328 750,367 750,412C750,445 739,476 717,504C694,531 665,555 628,574C591,593 554,609 517,623C480,637 440,651 399,666C358,680 328,692 309,702C279,667 264,628 264,584z"
   horiz-adv-x="1013"
   unicode="§" />
<glyph
   id="glyph216"
   d="M49,1171C49,1244 83,1280 152,1280C220,1280 254,1244 254,1171C254,1102 220,1067 152,1067C83,1067 49,1102 49,1171M420,1171C420,1244 454,1280 522,1280C591,1280 625,1244 625,1171C625,1102 591,1067 522,1067C454,1067 420,1102 420,1171z"
   horiz-adv-x="673"
   unicode="¨" />
<glyph
   id="glyph218"
   d="M98,688C98,927 160,1106 283,1227C406,1347 582,1407 811,1407C1042,1407 1219,1347 1340,1228C1461,1108 1522,928 1522,688C1522,449 1461,270 1340,151C1219,31 1042,-29 811,-29C582,-29 406,31 283,151C160,271 98,450 98,688M254,688C254,493 301,349 395,256C488,162 627,115 811,115C996,115 1135,162 1228,255C1320,348 1366,493 1366,688C1366,884 1320,1029 1228,1123C1135,1217 996,1264 811,1264C440,1264 254,1072 254,688M815,1065C880,1065 935,1053 980,1028C1025,1003 1056,974 1075,942C1080,933 1083,922 1083,909C1083,892 1077,878 1066,867C1055,856 1041,850 1024,850C1006,850 991,857 979,870C956,895 933,913 909,925C885,936 854,942 815,942C751,942 702,924 668,887C633,850 616,785 616,690C616,597 633,533 668,496C703,459 752,440 815,440C854,440 888,445 915,455C942,465 968,481 993,504C1004,515 1017,520 1034,520C1051,520 1065,514 1077,503C1088,492 1094,478 1094,461C1094,450 1090,439 1083,428C1062,397 1027,370 978,349C929,328 874,317 815,317C710,317 629,348 570,409C511,470 481,563 481,690C481,817 511,911 570,973C629,1034 710,1065 815,1065z"
   horiz-adv-x="1619"
   unicode="©" />
<glyph
   id="glyph220"
   d="M137,639l453,0C611,639 628,632 643,618C657,603 664,586 664,565C664,544 657,527 643,513C628,499 611,492 590,492l-453,0C116,492 99,499 85,513C70,527 63,544 63,565C63,586 70,603 85,618C99,632 116,639 137,639M82,948C82,1010 103,1058 145,1093C187,1128 240,1145 303,1145l189,0l0,24C492,1200 481,1225 460,1243C438,1261 407,1270 367,1270C320,1270 274,1251 227,1214C215,1206 202,1202 188,1202C169,1202 154,1209 141,1222C128,1235 121,1251 121,1270C121,1287 127,1303 139,1317C190,1377 266,1407 367,1407C454,1407 521,1387 570,1347C619,1306 643,1249 643,1176l0,-353C643,802 636,785 621,770C606,755 588,748 567,748C547,748 530,756 515,771C500,786 492,803 492,823C455,767 395,739 313,739C244,739 189,758 146,797C103,835 82,885 82,948M238,948C238,893 276,866 352,866C391,866 424,877 451,900C478,922 492,952 492,989l0,37l-158,0C303,1026 280,1019 263,1006C246,992 238,973 238,948z"
   horiz-adv-x="729"
   unicode="ª" />
<glyph
   id="glyph222"
   d="M117,489l315,363C451,873 471,883 494,883C515,883 534,875 550,859C565,843 573,824 573,803C573,782 566,765 553,752l-289,-318l289,-317C566,104 573,87 573,66C573,45 565,26 550,10C534,-6 515,-14 494,-14C471,-14 450,-4 432,16l-315,363C102,396 94,415 94,434C94,453 102,472 117,489M516,489l315,363C850,873 870,883 893,883C914,883 933,875 949,859C965,843 973,824 973,803C973,783 966,766 952,752l-288,-318l288,-317C966,103 973,86 973,66C973,45 965,26 949,10C933,-6 914,-14 893,-14C870,-14 849,-4 831,16l-315,363C501,396 494,414 494,434C494,454 501,472 516,489z"
   horiz-adv-x="1067"
   unicode="«" />
<glyph
   id="glyph224"
   d="M166,676l827,0C1020,676 1044,666 1065,645C1086,624 1096,600 1096,573l0,-487C1096,59 1086,35 1065,15C1044,-6 1020,-16 993,-16C966,-16 942,-6 922,15C901,35 891,59 891,86l0,393l-725,0C139,479 116,489 97,509C78,528 68,551 68,578C68,605 78,628 97,647C116,666 139,676 166,676z"
   horiz-adv-x="1163"
   unicode="¬" />
<glyph
   id="glyph226"
   d="M182,610l410,0C617,610 639,601 658,582C677,563 686,541 686,516C686,491 677,469 658,450C639,431 617,422 592,422l-410,0C157,422 135,431 116,450C97,469 88,491 88,516C88,541 97,563 116,582C135,601 157,610 182,610z"
   horiz-adv-x="774"
   unicode="­" />
<glyph
   id="glyph228"
   d="M383,1407C482,1407 557,1381 610,1330C662,1279 688,1201 688,1096C688,991 662,913 609,861C556,808 481,782 383,782C288,782 214,808 161,861C108,914 82,992 82,1096C82,1200 108,1278 161,1330C214,1381 288,1407 383,1407M152,1096C152,927 230,842 385,842C540,842 618,927 618,1096C618,1265 540,1350 385,1350C307,1350 249,1330 210,1289C171,1248 152,1184 152,1096M266,965l0,264C266,1236 269,1242 274,1247C279,1252 286,1255 293,1255l119,0C442,1255 467,1245 486,1225C505,1205 514,1182 514,1155C514,1125 506,1101 491,1083C475,1064 455,1055 432,1055l66,-74C502,976 504,970 504,963C504,955 501,948 496,943C490,937 483,934 475,934C465,934 457,938 451,946l-80,109l-43,0l0,-90C328,957 325,950 319,944C312,937 305,934 297,934C289,934 282,937 276,944C269,950 266,957 266,965M328,1108l75,0C436,1108 453,1124 453,1155C453,1169 449,1180 440,1189C431,1198 419,1202 403,1202l-75,0z"
   horiz-adv-x="802"
   unicode="®" />
<glyph
   id="glyph230"
   d="M229,1229l355,0C605,1229 624,1221 639,1206C654,1191 662,1172 662,1151C662,1130 654,1111 639,1096C624,1081 605,1073 584,1073l-355,0C208,1073 190,1081 175,1096C160,1111 152,1130 152,1151C152,1172 160,1191 175,1206C190,1221 208,1229 229,1229z"
   horiz-adv-x="813"
   unicode="¯" />
<glyph
   id="glyph232"
   d="M100,1126C100,1204 127,1270 180,1325C233,1380 300,1407 379,1407C460,1407 527,1380 580,1325C633,1270 659,1204 659,1126C659,1048 633,982 580,929C527,875 460,848 379,848C300,848 233,875 180,929C127,983 100,1049 100,1126M233,1126C233,1086 247,1052 274,1024C301,995 336,981 379,981C423,981 459,995 486,1024C513,1052 526,1086 526,1126C526,1167 512,1202 485,1231C458,1260 422,1274 379,1274C336,1274 301,1260 274,1231C247,1202 233,1167 233,1126z"
   horiz-adv-x="759"
   unicode="°" />
<glyph
   id="glyph234"
   d="M94,188l742,0C861,188 883,179 902,160C921,141 930,119 930,94C930,69 921,47 902,28C883,9 861,0 836,0l-742,0C69,0 47,9 28,28C9,47 0,69 0,94C0,119 9,141 28,160C47,179 69,188 94,188M94,758l273,0l0,248C367,1033 377,1056 396,1075C415,1094 438,1104 465,1104C492,1104 515,1094 534,1075C553,1056 563,1033 563,1006l0,-248l273,0C861,758 883,749 902,730C921,711 930,689 930,664C930,639 921,617 902,598C883,579 861,569 836,569l-273,0l0,-245C563,297 553,274 534,255C515,235 492,225 465,225C438,225 415,235 396,255C377,274 367,297 367,324l0,245l-273,0C69,569 47,579 28,598C9,617 0,639 0,664C0,689 9,711 28,730C47,749 69,758 94,758z"
   horiz-adv-x="929"
   unicode="±" />
<glyph
   id="glyph236"
   d="M55,944C55,984 63,1020 79,1051C95,1082 115,1107 139,1125C162,1143 188,1160 216,1176C244,1191 270,1204 294,1215C317,1226 337,1238 353,1253C369,1267 377,1283 377,1300C377,1318 370,1333 355,1345C340,1356 318,1362 289,1362C258,1362 223,1344 184,1309C169,1296 154,1290 139,1290C120,1290 105,1297 92,1310C79,1323 72,1339 72,1358C72,1375 79,1392 92,1409C110,1432 137,1452 174,1469C211,1486 249,1495 289,1495C362,1495 420,1477 463,1441C506,1404 528,1357 528,1300C528,1263 517,1231 496,1202C475,1173 449,1151 419,1134C389,1117 359,1102 329,1089C298,1075 272,1061 251,1047C230,1032 219,1017 219,1001l252,0C490,1001 505,995 518,983C531,970 537,955 537,936C537,917 531,902 518,889C505,876 490,870 471,870l-342,0C108,870 91,877 77,892C62,906 55,923 55,944z"
   horiz-adv-x="591"
   unicode="²" />
<glyph
   id="glyph238"
   d="M39,997C39,1016 45,1031 58,1044C70,1057 85,1063 102,1063C120,1063 136,1056 150,1042C169,1023 188,1009 207,1000C225,991 247,987 272,987C305,987 329,995 345,1010C361,1025 369,1044 369,1067C369,1120 343,1147 291,1147l-45,0C229,1147 215,1153 204,1164C192,1175 186,1189 186,1206C186,1223 194,1241 211,1260l88,92l-172,0C108,1352 93,1358 80,1371C67,1383 61,1398 61,1417C61,1436 67,1451 80,1464C93,1477 108,1483 127,1483l289,0C435,1483 450,1477 463,1464C475,1451 481,1436 481,1417C481,1400 474,1383 461,1368l-105,-108C383,1260 408,1254 430,1241C451,1228 468,1211 480,1191C492,1170 501,1149 507,1128C513,1107 516,1086 516,1067C516,1003 496,952 455,915C414,877 353,858 272,858C220,858 175,869 136,890C97,911 70,931 55,952C44,966 39,981 39,997z"
   horiz-adv-x="565"
   unicode="³" />
<glyph
   id="glyph240"
   d="M236,1145l174,221C425,1385 444,1394 467,1393C490,1392 511,1381 532,1360C554,1339 565,1317 566,1294C567,1271 558,1252 541,1237l-201,-184C308,1024 277,1024 246,1053C230,1068 221,1085 220,1102C219,1119 224,1133 236,1145z"
   horiz-adv-x="786"
   unicode="´" />
<glyph
   id="glyph242"
   d="M92,-309l0,1145C92,867 103,893 125,914C146,935 172,946 203,946C234,946 260,935 281,914C302,893 313,867 313,836l0,-478C313,303 327,258 354,225C381,191 429,174 498,174C619,174 680,235 680,358l0,478C680,867 691,893 713,914C734,935 760,946 791,946C822,946 848,935 869,914C890,893 901,867 901,836l0,-478C901,303 895,255 884,212C872,169 852,129 824,92C795,54 754,25 699,4C644,-17 577,-27 498,-27C415,-27 354,-6 313,37l0,-346C313,-340 302,-366 281,-387C260,-409 234,-420 203,-420C172,-420 146,-409 125,-387C103,-366 92,-340 92,-309z"
   horiz-adv-x="993"
   unicode="µ" />
<glyph
   id="glyph244"
   d="M455,1378l538,0C1022,1378 1046,1368 1067,1348C1088,1327 1098,1303 1098,1274C1098,1245 1088,1221 1067,1200C1046,1179 1022,1169 993,1169l-26,0l0,-557C967,513 958,426 939,349C920,272 894,208 860,156C826,104 784,61 734,28C683,-6 628,-30 568,-45C508,-60 441,-68 367,-68C329,-68 284,-63 233,-54C182,-45 146,-35 125,-23C109,-15 96,-3 87,14C77,30 72,48 72,68C72,95 82,119 103,140C123,160 147,170 174,170C189,170 212,164 245,152C278,139 305,133 328,133C389,133 434,159 461,210C488,261 502,335 502,434l0,168l-47,0C348,602 256,640 181,715C106,790 68,882 68,989C68,1096 106,1188 181,1264C256,1340 348,1378 455,1378M549,137C615,170 662,218 691,281C719,344 733,434 733,553l0,616l-76,0l0,-706C657,323 621,214 549,137z"
   horiz-adv-x="1130"
   unicode="¶" />
<glyph
   id="glyph246"
   d="M96,614C96,659 108,694 131,717C154,740 188,752 231,752C320,752 365,706 365,614C365,525 320,481 231,481C141,481 96,525 96,614z"
   horiz-adv-x="460"
   unicode="·" />
<glyph
   id="glyph248"
   d="M129,-395C129,-380 134,-368 145,-357C155,-347 167,-342 182,-342C191,-342 199,-344 207,-348C247,-367 286,-377 324,-377C357,-377 382,-370 399,-356C416,-343 424,-319 424,-285C424,-228 387,-199 313,-199C301,-199 285,-201 266,-205C247,-209 232,-211 223,-211C194,-211 180,-196 180,-166l0,166l103,0l-11,-109C290,-104 314,-102 344,-102C402,-102 449,-118 485,-150C521,-182 539,-227 539,-285C539,-417 464,-483 315,-483C288,-483 260,-479 229,-471C198,-463 173,-452 152,-438C137,-428 129,-414 129,-395z"
   horiz-adv-x="669"
   unicode="¸" />
<glyph
   id="glyph250"
   d="M49,1309C49,1336 61,1356 84,1370l170,107C267,1485 281,1489 295,1489C316,1489 334,1482 349,1467C364,1452 371,1434 371,1413l0,-473C371,919 364,902 349,887C334,872 316,864 295,864C274,864 257,872 242,887C227,902 219,919 219,940l0,346l-65,-41C143,1240 132,1237 121,1237C102,1237 85,1244 71,1259C56,1273 49,1290 49,1309z"
   horiz-adv-x="466"
   unicode="¹" />
<glyph
   id="glyph252"
   d="M137,639l453,0C611,639 628,632 643,618C657,603 664,586 664,565C664,544 657,527 643,513C628,499 611,492 590,492l-453,0C116,492 99,499 85,513C70,527 63,544 63,565C63,586 70,603 85,618C99,632 116,639 137,639M369,1407C465,1407 540,1379 594,1323C647,1266 674,1183 674,1073C674,963 647,880 594,824C540,767 465,739 369,739C274,739 199,767 146,824C93,880 66,963 66,1073C66,1183 93,1266 146,1323C199,1379 274,1407 369,1407M369,868C471,868 522,936 522,1073C522,1210 471,1278 369,1278C268,1278 217,1210 217,1073C217,936 268,868 369,868z"
   horiz-adv-x="741"
   unicode="º" />
<glyph
   id="glyph254"
   d="M94,66C94,86 101,103 115,117l288,317l-288,318C101,766 94,783 94,803C94,824 102,843 118,859C134,875 153,883 174,883C197,883 217,873 236,852l315,-363C566,472 573,454 573,434C573,414 566,396 551,379l-315,-363C218,-4 197,-14 174,-14C153,-14 134,-6 118,10C102,26 94,45 94,66M494,66C494,87 501,104 514,117l289,317l-289,318C501,765 494,782 494,803C494,824 502,843 518,859C533,875 552,883 573,883C596,883 616,873 635,852l315,-363C965,472 973,453 973,434C973,415 965,396 950,379l-315,-363C617,-4 596,-14 573,-14C552,-14 533,-6 518,10C502,26 494,45 494,66z"
   horiz-adv-x="1067"
   unicode="»" />
<glyph
   id="glyph256"
   d="M41,1221C41,1248 53,1268 76,1282l170,107C259,1397 273,1401 287,1401C308,1401 325,1394 340,1379C355,1364 362,1346 362,1325l0,-473C362,831 355,814 340,799C325,784 308,776 287,776C266,776 249,784 234,799C219,814 211,831 211,852l0,346l-66,-41C134,1152 124,1149 113,1149C94,1149 77,1156 63,1171C48,1185 41,1202 41,1221M168,70C168,80 170,90 174,100l481,1239C660,1352 670,1365 684,1377C697,1389 714,1395 735,1395C759,1395 779,1386 796,1369C813,1352 821,1332 821,1309C821,1298 819,1288 815,1278l-481,-1239C329,25 320,12 307,1C293,-10 275,-16 254,-16C231,-16 211,-7 194,10C177,27 168,47 168,70M492,174C492,189 497,202 506,215l264,358C789,596 810,608 834,608C855,608 872,601 887,586C902,571 909,553 909,532l0,-290l29,0C957,242 973,235 986,222C999,209 1006,193 1006,174C1006,155 999,139 986,126C973,113 957,106 938,106l-29,0l0,-47C909,38 902,21 887,6C872,-9 855,-16 834,-16C813,-16 796,-9 781,6C766,21 758,38 758,59l0,47l-199,0C540,106 525,113 512,126C499,139 492,155 492,174M659,242l99,0l0,139z"
   horiz-adv-x="1048"
   unicode="¼" />
<glyph
   id="glyph258"
   d="M51,1221C51,1248 63,1268 86,1282l170,107C269,1397 283,1401 297,1401C318,1401 336,1394 351,1379C366,1364 373,1346 373,1325l0,-473C373,831 366,814 351,799C336,784 318,776 297,776C276,776 259,784 244,799C229,814 221,831 221,852l0,346l-65,-41C145,1152 134,1149 123,1149C104,1149 87,1156 73,1171C58,1185 51,1202 51,1221M178,70C178,80 180,90 184,100l482,1239C671,1353 681,1366 694,1378C707,1389 724,1395 745,1395C769,1395 789,1386 806,1369C823,1352 831,1332 831,1309C831,1298 829,1288 825,1278l-481,-1239C339,25 330,12 317,1C303,-10 285,-16 264,-16C241,-16 221,-7 204,10C187,27 178,47 178,70M588,74C588,114 596,150 612,181C628,212 648,237 672,255C695,273 721,290 749,306C776,321 802,334 826,345C849,356 869,368 885,383C901,397 909,413 909,430C909,448 902,463 887,475C872,486 850,492 821,492C806,492 792,489 778,482C763,475 753,469 746,464C739,458 730,449 717,438C703,426 688,420 672,420C653,420 637,427 624,440C611,453 604,468 604,487C604,504 611,521 625,539C643,562 670,582 707,599C743,616 781,625 821,625C894,625 952,607 996,571C1039,534 1061,487 1061,430C1061,393 1050,361 1029,332C1008,303 982,281 952,264C921,247 891,232 861,219C831,205 805,191 784,177C763,162 752,147 752,131l252,0C1023,131 1038,125 1051,113C1063,100 1069,85 1069,66C1069,47 1063,32 1051,19C1038,6 1023,0 1004,0l-342,0C641,0 624,7 610,22C595,36 588,53 588,74z"
   horiz-adv-x="1122"
   unicode="½" />
<glyph
   id="glyph260"
   d="M39,909C39,928 45,943 58,956C70,969 85,975 102,975C120,975 136,968 150,954C169,935 188,921 207,912C225,903 247,899 272,899C305,899 329,907 345,922C361,937 369,956 369,979C369,1032 343,1059 291,1059l-45,0C229,1059 215,1065 204,1076C192,1087 186,1101 186,1118C186,1135 194,1152 211,1171l88,93l-172,0C108,1264 93,1270 80,1283C67,1295 61,1310 61,1329C61,1348 67,1363 80,1376C93,1389 108,1395 127,1395l289,0C435,1395 450,1389 463,1376C475,1363 481,1348 481,1329C481,1312 474,1295 461,1280l-105,-109C392,1171 423,1160 449,1137C474,1114 492,1089 502,1062C511,1034 516,1006 516,979C516,915 496,864 455,827C414,789 353,770 272,770C220,770 175,781 136,802C97,823 70,843 55,864C44,878 39,893 39,909M283,70C283,80 285,90 289,100l481,1239C775,1352 785,1365 799,1377C812,1389 829,1395 850,1395C874,1395 894,1386 911,1369C928,1352 936,1332 936,1309C936,1298 934,1288 930,1278l-481,-1239C444,25 435,12 422,1C408,-10 390,-16 369,-16C346,-16 326,-7 309,10C292,27 283,47 283,70M606,174C606,188 611,202 621,215l264,358C904,596 925,608 948,608C969,608 987,601 1002,586C1017,571 1024,553 1024,532l0,-290l29,0C1072,242 1088,235 1101,222C1114,209 1120,193 1120,174C1120,155 1114,139 1101,126C1088,113 1072,106 1053,106l-29,0l0,-47C1024,38 1017,21 1002,6C987,-9 969,-16 948,-16C927,-16 910,-9 895,6C880,21 872,38 872,59l0,47l-198,0C655,106 639,113 626,126C613,139 606,155 606,174M774,242l98,0l0,139z"
   horiz-adv-x="1142"
   unicode="¾" />
<glyph
   id="glyph262"
   d="M41,-106C41,-54 51,-7 70,36C89,78 114,112 143,138C172,163 203,187 237,210C270,233 302,251 331,266C360,281 384,297 403,316C422,334 432,352 432,371C432,384 425,401 412,420C399,439 393,459 393,481C393,514 405,540 428,561C451,582 476,592 504,592C535,592 562,581 584,559C634,511 659,453 659,385C659,338 645,295 618,257C591,219 558,187 519,162C480,137 441,112 402,88C363,63 330,35 303,2C276,-31 262,-67 262,-106C262,-156 280,-195 317,-222C353,-250 404,-264 469,-264C528,-264 575,-249 610,-220C645,-191 662,-148 662,-92C662,-61 673,-35 695,-13C717,9 743,20 774,20C805,20 831,9 854,-13C876,-35 887,-61 887,-92C887,-209 850,-300 776,-366C702,-432 600,-465 469,-465C334,-465 229,-434 154,-371C79,-308 41,-220 41,-106M377,825C377,914 421,958 510,958C600,958 645,914 645,825C645,734 600,688 510,688C421,688 377,734 377,825z"
   horiz-adv-x="927"
   unicode="¿" />
<glyph
   id="glyph264"
   d="M39,100C39,116 42,130 47,143l483,1178C538,1340 551,1357 570,1372C588,1387 611,1395 639,1395C667,1395 690,1387 709,1372C727,1357 740,1340 748,1321l483,-1178C1236,130 1239,116 1239,100C1239,69 1227,42 1204,19C1181,-4 1153,-16 1122,-16C1097,-16 1074,-9 1055,6C1036,20 1021,38 1012,61l-125,297l-496,0l-125,-297C257,38 242,20 223,6C204,-9 181,-16 156,-16C125,-16 97,-4 74,19C51,42 39,69 39,100M502,1786C523,1807 545,1818 568,1819C591,1820 610,1811 625,1792l174,-221C811,1559 816,1545 815,1528C813,1511 804,1494 788,1479C757,1450 726,1450 694,1479l-200,184C477,1678 468,1697 469,1720C470,1743 481,1765 502,1786M471,575l336,0l-168,431z"
   horiz-adv-x="1277"
   unicode="À" />
<glyph
   id="glyph266"
   d="M39,100C39,116 42,130 47,143l483,1178C538,1340 551,1357 570,1372C588,1387 611,1395 639,1395C667,1395 690,1387 709,1372C727,1357 740,1340 748,1321l483,-1178C1236,130 1239,116 1239,100C1239,69 1227,42 1204,19C1181,-4 1153,-16 1122,-16C1097,-16 1074,-9 1055,6C1036,20 1021,38 1012,61l-125,297l-496,0l-125,-297C257,38 242,20 223,6C204,-9 181,-16 156,-16C125,-16 97,-4 74,19C51,42 39,69 39,100M481,1571l174,221C670,1811 689,1820 712,1819C735,1818 757,1807 778,1786C799,1765 810,1743 811,1720C812,1697 803,1678 786,1663l-200,-184C554,1450 523,1450 492,1479C476,1494 467,1511 466,1528C464,1545 469,1559 481,1571M471,575l336,0l-168,431z"
   horiz-adv-x="1277"
   unicode="Á" />
<glyph
   id="glyph268"
   d="M39,100C39,116 42,130 47,143l483,1178C538,1340 551,1357 570,1372C588,1387 611,1395 639,1395C667,1395 690,1387 709,1372C727,1357 740,1340 748,1321l483,-1178C1236,130 1239,116 1239,100C1239,69 1227,42 1204,19C1181,-4 1153,-16 1122,-16C1097,-16 1074,-9 1055,6C1036,20 1021,38 1012,61l-125,297l-496,0l-125,-297C257,38 242,20 223,6C204,-9 181,-16 156,-16C125,-16 97,-4 74,19C51,42 39,69 39,100M365,1544C365,1573 377,1595 401,1612l191,127C605,1748 621,1753 639,1753C657,1753 673,1748 686,1739l191,-127C901,1595 913,1573 913,1544C913,1521 906,1502 891,1487C876,1472 857,1464 834,1464C815,1464 799,1469 786,1479l-147,102l-147,-102C479,1469 463,1464 444,1464C421,1464 403,1472 388,1487C373,1502 365,1521 365,1544M471,575l336,0l-168,431z"
   horiz-adv-x="1277"
   unicode="Â" />
<glyph
   id="glyph270"
   d="M39,100C39,116 42,130 47,143l483,1178C538,1340 551,1357 570,1372C588,1387 611,1395 639,1395C667,1395 690,1387 709,1372C727,1357 740,1340 748,1321l483,-1178C1236,130 1239,116 1239,100C1239,69 1227,42 1204,19C1181,-4 1153,-16 1122,-16C1097,-16 1074,-9 1055,6C1036,20 1021,38 1012,61l-125,297l-496,0l-125,-297C257,38 242,20 223,6C204,-9 181,-16 156,-16C125,-16 97,-4 74,19C51,42 39,69 39,100M315,1575C315,1588 317,1599 322,1608C336,1641 359,1667 391,1686C422,1705 458,1714 498,1714C539,1714 588,1703 645,1680C701,1657 740,1645 762,1645C783,1645 800,1656 815,1677C831,1700 854,1712 883,1712C906,1712 925,1704 940,1689C955,1674 963,1655 963,1632C963,1619 961,1608 956,1599C942,1566 919,1540 888,1521C856,1502 820,1493 780,1493C738,1493 688,1505 631,1528C573,1551 535,1563 516,1563C496,1563 478,1552 463,1530C446,1507 424,1495 395,1495C372,1495 353,1503 338,1518C323,1533 315,1552 315,1575M471,575l336,0l-168,431z"
   horiz-adv-x="1277"
   unicode="Ã" />
<glyph
   id="glyph272"
   d="M39,100C39,116 42,130 47,143l483,1178C538,1340 551,1357 570,1372C588,1387 611,1395 639,1395C667,1395 690,1387 709,1372C727,1357 740,1340 748,1321l483,-1178C1236,130 1239,116 1239,100C1239,69 1227,42 1204,19C1181,-4 1153,-16 1122,-16C1097,-16 1074,-9 1055,6C1036,20 1021,38 1012,61l-125,297l-496,0l-125,-297C257,38 242,20 223,6C204,-9 181,-16 156,-16C125,-16 97,-4 74,19C51,42 39,69 39,100M352,1620C352,1693 386,1729 455,1729C523,1729 557,1693 557,1620C557,1551 523,1516 455,1516C386,1516 352,1551 352,1620M471,575l336,0l-168,431M723,1620C723,1693 757,1729 825,1729C894,1729 928,1693 928,1620C928,1551 894,1516 825,1516C757,1516 723,1551 723,1620z"
   horiz-adv-x="1277"
   unicode="Ä" />
<glyph
   id="glyph274"
   d="M39,100C39,116 42,130 47,143l483,1178C538,1340 551,1357 570,1372C588,1387 611,1395 639,1395C667,1395 690,1387 709,1372C727,1357 740,1340 748,1321l483,-1178C1236,130 1239,116 1239,100C1239,69 1227,42 1204,19C1181,-4 1153,-16 1122,-16C1097,-16 1074,-9 1055,6C1036,20 1021,38 1012,61l-125,297l-496,0l-125,-297C257,38 242,20 223,6C204,-9 181,-16 156,-16C125,-16 97,-4 74,19C51,42 39,69 39,100M477,1493C440,1528 422,1578 422,1642C422,1706 440,1756 477,1792C514,1827 568,1845 639,1845C710,1845 764,1827 801,1792C838,1756 856,1706 856,1642C856,1578 838,1528 801,1493C764,1458 710,1440 639,1440C568,1440 514,1458 477,1493M471,575l336,0l-168,431M561,1718C545,1701 537,1675 537,1642C537,1609 545,1584 561,1567C576,1550 602,1542 639,1542C676,1542 702,1550 718,1567C733,1584 741,1609 741,1642C741,1675 733,1701 718,1718C702,1735 676,1743 639,1743C602,1743 576,1735 561,1718z"
   horiz-adv-x="1277"
   unicode="Å" />
<glyph
   id="glyph276"
   d="M47,100C47,121 54,143 68,166l772,1159C865,1360 896,1378 934,1378l645,0C1608,1378 1634,1368 1655,1347C1676,1326 1686,1301 1686,1272C1686,1243 1676,1218 1655,1197C1634,1176 1608,1165 1579,1165l-520,0l0,-366l387,0C1475,799 1499,789 1520,768C1540,747 1550,723 1550,694C1550,665 1540,641 1520,621C1499,600 1475,590 1446,590l-387,0l0,-377l543,0C1631,213 1656,203 1677,182C1698,161 1708,135 1708,106C1708,77 1698,52 1677,31C1656,10 1631,0 1602,0l-662,0C907,0 879,11 856,33C833,55 821,82 821,115l0,264l-344,0l-215,-340C238,2 205,-16 164,-16C133,-16 105,-4 82,19C59,42 47,69 47,100M606,596l215,0l0,340z"
   horiz-adv-x="1769"
   unicode="Æ" />
<glyph
   id="glyph278"
   d="M70,688C70,927 125,1107 235,1227C345,1347 504,1407 711,1407C828,1407 929,1387 1012,1347C1095,1306 1159,1253 1204,1186C1219,1162 1227,1139 1227,1118C1227,1089 1216,1063 1195,1042C1173,1021 1147,1010 1116,1010C1085,1010 1057,1024 1032,1051C987,1100 941,1136 892,1159C843,1182 782,1194 711,1194C576,1194 476,1152 412,1069C347,985 315,858 315,688C315,511 347,382 410,303C473,224 574,184 711,184C786,184 848,194 896,214C944,233 993,268 1042,319C1073,350 1102,365 1130,365C1161,365 1187,354 1209,333C1230,311 1241,285 1241,254C1241,231 1234,211 1221,193C1100,45 920,-29 680,-29l-6,-80C691,-104 715,-102 745,-102C803,-102 850,-118 886,-150C922,-182 940,-227 940,-285C940,-417 866,-483 717,-483C690,-483 662,-479 631,-471C600,-463 574,-452 553,-438C538,-428 530,-414 530,-395C530,-380 535,-368 546,-357C557,-347 569,-342 584,-342C592,-342 600,-344 608,-348C648,-367 687,-377 725,-377C758,-377 783,-370 800,-356C817,-343 825,-319 825,-285C825,-228 788,-199 715,-199C703,-199 687,-201 668,-205C649,-209 634,-211 625,-211C596,-211 582,-196 582,-166l0,146C241,25 70,261 70,688z"
   horiz-adv-x="1310"
   unicode="Ç" />
<glyph
   id="glyph280"
   d="M123,119l0,1141C123,1293 135,1321 158,1344C181,1367 209,1378 242,1378l639,0C910,1378 935,1368 956,1347C977,1326 987,1301 987,1272C987,1243 977,1218 956,1197C935,1176 910,1165 881,1165l-521,0l0,-366l388,0C777,799 801,789 822,768C842,747 852,723 852,694C852,665 842,641 822,621C801,600 777,590 748,590l-388,0l0,-377l543,0C932,213 958,203 979,182C1000,161 1010,135 1010,106C1010,77 1000,52 979,31C958,10 932,0 903,0l-661,0C209,0 181,12 158,35C135,58 123,86 123,119M422,1786C443,1807 465,1818 488,1819C511,1820 530,1811 545,1792l174,-221C731,1559 736,1545 735,1528C734,1511 725,1494 709,1479C678,1450 647,1450 614,1479l-200,184C397,1678 388,1697 389,1720C390,1743 401,1765 422,1786z"
   horiz-adv-x="1071"
   unicode="È" />
<glyph
   id="glyph282"
   d="M123,119l0,1141C123,1293 135,1321 158,1344C181,1367 209,1378 242,1378l639,0C910,1378 935,1368 956,1347C977,1326 987,1301 987,1272C987,1243 977,1218 956,1197C935,1176 910,1165 881,1165l-521,0l0,-366l388,0C777,799 801,789 822,768C842,747 852,723 852,694C852,665 842,641 822,621C801,600 777,590 748,590l-388,0l0,-377l543,0C932,213 958,203 979,182C1000,161 1010,135 1010,106C1010,77 1000,52 979,31C958,10 932,0 903,0l-661,0C209,0 181,12 158,35C135,58 123,86 123,119M446,1571l175,221C636,1811 655,1820 678,1819C701,1818 722,1807 743,1786C765,1765 776,1743 777,1720C778,1697 769,1678 752,1663l-201,-184C519,1450 488,1450 457,1479C441,1494 432,1511 431,1528C429,1545 434,1559 446,1571z"
   horiz-adv-x="1071"
   unicode="É" />
<glyph
   id="glyph284"
   d="M123,119l0,1141C123,1293 135,1321 158,1344C181,1367 209,1378 242,1378l639,0C910,1378 935,1368 956,1347C977,1326 987,1301 987,1272C987,1243 977,1218 956,1197C935,1176 910,1165 881,1165l-521,0l0,-366l388,0C777,799 801,789 822,768C842,747 852,723 852,694C852,665 842,641 822,621C801,600 777,590 748,590l-388,0l0,-377l543,0C932,213 958,203 979,182C1000,161 1010,135 1010,106C1010,77 1000,52 979,31C958,10 932,0 903,0l-661,0C209,0 181,12 158,35C135,58 123,86 123,119M297,1544C297,1572 309,1595 334,1612l190,127C537,1748 553,1753 571,1753C589,1753 605,1748 618,1739l191,-127C834,1595 846,1572 846,1544C846,1521 838,1502 823,1487C808,1472 789,1464 766,1464C747,1464 732,1469 719,1479l-148,102l-147,-102C411,1469 396,1464 377,1464C354,1464 335,1472 320,1487C305,1502 297,1521 297,1544z"
   horiz-adv-x="1071"
   unicode="Ê" />
<glyph
   id="glyph286"
   d="M123,119l0,1141C123,1293 135,1321 158,1344C181,1367 209,1378 242,1378l639,0C910,1378 935,1368 956,1347C977,1326 987,1301 987,1272C987,1243 977,1218 956,1197C935,1176 910,1165 881,1165l-521,0l0,-366l388,0C777,799 801,789 822,768C842,747 852,723 852,694C852,665 842,641 822,621C801,600 777,590 748,590l-388,0l0,-377l543,0C932,213 958,203 979,182C1000,161 1010,135 1010,106C1010,77 1000,52 979,31C958,10 932,0 903,0l-661,0C209,0 181,12 158,35C135,58 123,86 123,119M281,1620C281,1693 315,1729 383,1729C451,1729 485,1693 485,1620C485,1551 451,1516 383,1516C315,1516 281,1551 281,1620M651,1620C651,1693 685,1729 754,1729C822,1729 856,1693 856,1620C856,1551 822,1516 754,1516C685,1516 651,1551 651,1620z"
   horiz-adv-x="1071"
   unicode="Ë" />
<glyph
   id="glyph288"
   d="M104,1786C125,1807 147,1818 170,1819C193,1820 212,1811 227,1792l174,-221C413,1559 418,1545 417,1528C416,1511 407,1494 391,1479C360,1450 329,1450 297,1479l-201,184C79,1678 70,1697 71,1720C72,1743 83,1765 104,1786M123,102l0,1174C123,1309 135,1338 158,1361C181,1384 209,1395 242,1395C275,1395 303,1384 326,1361C349,1338 360,1309 360,1276l0,-1174C360,69 349,41 326,18C303,-5 275,-16 242,-16C209,-16 181,-4 158,19C135,42 123,69 123,102z"
   horiz-adv-x="483"
   unicode="Ì" />
<glyph
   id="glyph290"
   d="M121,1571l174,221C310,1811 329,1820 352,1819C375,1818 397,1807 418,1786C439,1765 450,1743 451,1720C452,1697 443,1678 426,1663l-201,-184C193,1450 162,1450 131,1479C115,1494 106,1511 105,1528C104,1545 109,1559 121,1571M123,102l0,1174C123,1309 135,1338 158,1361C181,1384 209,1395 242,1395C275,1395 303,1384 326,1361C349,1338 360,1309 360,1276l0,-1174C360,69 349,41 326,18C303,-5 275,-16 242,-16C209,-16 181,-4 158,19C135,42 123,69 123,102z"
   horiz-adv-x="483"
   unicode="Í" />
<glyph
   id="glyph292"
   d="M-31,1544C-31,1572 -19,1595 6,1612l191,127C210,1748 226,1753 244,1753C262,1753 278,1748 291,1739l190,-127C506,1595 518,1572 518,1544C518,1521 510,1502 495,1487C480,1472 461,1464 438,1464C419,1464 404,1469 391,1479l-147,102l-148,-102C83,1469 68,1464 49,1464C26,1464 7,1472 -8,1487C-23,1502 -31,1521 -31,1544M123,102l0,1174C123,1309 135,1338 158,1361C181,1384 209,1395 242,1395C275,1395 303,1384 326,1361C349,1338 360,1309 360,1276l0,-1174C360,69 349,41 326,18C303,-5 275,-16 242,-16C209,-16 181,-4 158,19C135,42 123,69 123,102z"
   horiz-adv-x="483"
   unicode="Î" />
<glyph
   id="glyph294"
   d="M-41,1620C-41,1693 -7,1729 61,1729C130,1729 164,1693 164,1620C164,1551 130,1516 61,1516C-7,1516 -41,1551 -41,1620M123,102l0,1174C123,1309 135,1338 158,1361C181,1384 209,1395 242,1395C275,1395 303,1384 326,1361C349,1338 360,1309 360,1276l0,-1174C360,69 349,41 326,18C303,-5 275,-16 242,-16C209,-16 181,-4 158,19C135,42 123,69 123,102M330,1620C330,1693 364,1729 432,1729C501,1729 535,1693 535,1620C535,1551 501,1516 432,1516C364,1516 330,1551 330,1620z"
   horiz-adv-x="483"
   unicode="Ï" />
<glyph
   id="glyph296"
   d="M129,807l45,0l0,453C174,1293 186,1321 209,1344C232,1367 260,1378 293,1378l276,0C674,1378 766,1366 846,1341C925,1316 995,1277 1054,1224C1113,1170 1158,1098 1189,1009C1220,919 1235,812 1235,688C1235,564 1220,457 1189,368C1158,278 1113,207 1054,154C995,101 925,62 846,37C766,12 674,0 569,0l-276,0C260,0 232,12 209,35C186,58 174,86 174,119l0,499l-45,0C104,618 82,628 63,647C44,666 35,688 35,713C35,738 44,760 63,779C82,798 104,807 129,807M412,213l157,0C637,213 696,221 746,238C796,254 840,280 877,317C914,353 942,402 961,464C980,526 989,601 989,688C989,859 954,981 883,1055C812,1128 707,1165 569,1165l-157,0l0,-358l288,0C725,807 748,798 767,779C786,760 795,738 795,713C795,688 786,666 767,647C748,628 725,618 700,618l-288,0z"
   horiz-adv-x="1302"
   unicode="Ð" />
<glyph
   id="glyph298"
   d="M113,100l0,1178C113,1309 125,1337 148,1360C171,1383 198,1395 229,1395C271,1395 303,1379 324,1346l606,-879l0,811C930,1309 942,1337 965,1360C988,1383 1016,1395 1047,1395C1078,1395 1106,1383 1129,1360C1152,1337 1163,1309 1163,1278l0,-1178C1163,69 1152,42 1129,19C1106,-4 1078,-16 1047,-16C1004,-16 972,1 950,35l-604,872l0,-807C346,69 334,42 311,19C288,-4 260,-16 229,-16C198,-16 171,-4 148,19C125,42 113,69 113,100M313,1575C313,1589 315,1600 319,1608C333,1641 356,1667 388,1686C420,1705 456,1714 496,1714C537,1714 586,1703 643,1680C699,1657 738,1645 760,1645C781,1645 798,1656 813,1677C830,1700 852,1712 881,1712C904,1712 923,1704 938,1689C953,1674 961,1655 961,1632C961,1619 959,1608 954,1599C940,1566 917,1540 886,1521C854,1502 818,1493 778,1493C736,1493 686,1505 629,1528C571,1551 533,1563 514,1563C494,1563 476,1552 461,1530C444,1507 422,1495 393,1495C370,1495 351,1503 336,1518C321,1533 313,1552 313,1575z"
   horiz-adv-x="1275"
   unicode="Ñ" />
<glyph
   id="glyph300"
   d="M70,688C70,451 126,273 238,152C349,31 510,-29 719,-29C928,-29 1089,31 1201,152C1312,273 1368,451 1368,688C1368,927 1312,1107 1201,1227C1090,1347 929,1407 719,1407C509,1407 348,1347 237,1227C126,1107 70,927 70,688M315,688C315,1025 450,1194 719,1194C854,1194 955,1152 1022,1069C1089,985 1122,858 1122,688C1122,352 988,184 719,184C450,184 315,352 315,688M582,1786C603,1807 625,1818 648,1819C671,1820 690,1811 705,1792l174,-221C891,1559 896,1545 895,1528C893,1511 884,1494 868,1479C837,1450 806,1450 774,1479l-201,184C556,1678 547,1697 548,1720C549,1743 560,1765 582,1786z"
   horiz-adv-x="1437"
   unicode="Ò" />
<glyph
   id="glyph302"
   d="M70,688C70,451 126,273 238,152C349,31 510,-29 719,-29C928,-29 1089,31 1201,152C1312,273 1368,451 1368,688C1368,927 1312,1107 1201,1227C1090,1347 929,1407 719,1407C509,1407 348,1347 237,1227C126,1107 70,927 70,688M315,688C315,1025 450,1194 719,1194C854,1194 955,1152 1022,1069C1089,985 1122,858 1122,688C1122,352 988,184 719,184C450,184 315,352 315,688M596,1571l174,221C785,1811 804,1820 827,1819C850,1818 872,1807 893,1786C914,1765 925,1743 926,1720C927,1697 918,1678 901,1663l-201,-184C668,1450 637,1450 606,1479C590,1494 581,1511 580,1528C579,1545 584,1559 596,1571z"
   horiz-adv-x="1437"
   unicode="Ó" />
<glyph
   id="glyph304"
   d="M70,688C70,451 126,273 238,152C349,31 510,-29 719,-29C928,-29 1089,31 1201,152C1312,273 1368,451 1368,688C1368,927 1312,1107 1201,1227C1090,1347 929,1407 719,1407C509,1407 348,1347 237,1227C126,1107 70,927 70,688M315,688C315,1025 450,1194 719,1194C854,1194 955,1152 1022,1069C1089,985 1122,858 1122,688C1122,352 988,184 719,184C450,184 315,352 315,688M442,1544C442,1572 454,1595 479,1612l191,127C683,1748 699,1753 717,1753C735,1753 751,1748 764,1739l190,-127C979,1595 991,1572 991,1544C991,1521 983,1502 968,1487C953,1472 934,1464 911,1464C892,1464 877,1469 864,1479l-147,102l-148,-102C556,1469 541,1464 522,1464C499,1464 480,1472 465,1487C450,1502 442,1521 442,1544z"
   horiz-adv-x="1437"
   unicode="Ô" />
<glyph
   id="glyph306"
   d="M70,688C70,451 126,273 238,152C349,31 510,-29 719,-29C928,-29 1089,31 1201,152C1312,273 1368,451 1368,688C1368,927 1312,1107 1201,1227C1090,1347 929,1407 719,1407C509,1407 348,1347 237,1227C126,1107 70,927 70,688M315,688C315,1025 450,1194 719,1194C854,1194 955,1152 1022,1069C1089,985 1122,858 1122,688C1122,352 988,184 719,184C450,184 315,352 315,688M395,1575C395,1589 397,1600 401,1608C415,1641 438,1667 470,1686C502,1705 538,1714 578,1714C619,1714 668,1703 725,1680C781,1657 820,1645 842,1645C863,1645 880,1656 895,1677C912,1700 934,1712 963,1712C986,1712 1005,1704 1020,1689C1035,1674 1042,1655 1042,1632C1042,1618 1040,1607 1036,1599C1022,1566 999,1540 968,1521C936,1502 900,1493 860,1493C818,1493 768,1505 711,1528C653,1551 615,1563 596,1563C576,1563 558,1552 543,1530C526,1507 504,1495 475,1495C452,1495 433,1503 418,1518C403,1533 395,1552 395,1575z"
   horiz-adv-x="1437"
   unicode="Õ" />
<glyph
   id="glyph308"
   d="M70,688C70,451 126,273 238,152C349,31 510,-29 719,-29C928,-29 1089,31 1201,152C1312,273 1368,451 1368,688C1368,927 1312,1107 1201,1227C1090,1347 929,1407 719,1407C509,1407 348,1347 237,1227C126,1107 70,927 70,688M315,688C315,1025 450,1194 719,1194C854,1194 955,1152 1022,1069C1089,985 1122,858 1122,688C1122,352 988,184 719,184C450,184 315,352 315,688M430,1620C430,1693 464,1729 532,1729C601,1729 635,1693 635,1620C635,1551 601,1516 532,1516C464,1516 430,1551 430,1620M801,1620C801,1693 835,1729 903,1729C972,1729 1006,1693 1006,1620C1006,1551 972,1516 903,1516C835,1516 801,1551 801,1620z"
   horiz-adv-x="1437"
   unicode="Ö" />
<glyph
   id="glyph310"
   d="M0,182C0,211 11,236 33,256l207,193l-207,192C11,661 0,686 0,715C0,742 10,766 30,786C49,805 73,815 100,815C127,815 151,805 170,786l211,-200l211,200C611,805 635,815 662,815C689,815 713,805 733,786C752,766 762,742 762,715C762,686 751,661 729,641l-207,-192l207,-193C751,236 762,211 762,182C762,155 752,131 733,112C713,92 689,82 662,82C635,82 611,92 592,111l-211,200l-211,-200C151,92 127,82 100,82C73,82 49,92 30,112C10,131 0,155 0,182z"
   horiz-adv-x="761"
   unicode="×" />
<glyph
   id="glyph312"
   d="M70,688C70,927 126,1107 237,1227C348,1347 509,1407 719,1407C877,1407 1006,1374 1106,1307l70,86C1193,1414 1216,1425 1245,1425C1270,1425 1291,1416 1309,1399C1326,1381 1335,1360 1335,1335C1335,1312 1328,1293 1315,1278l-78,-96C1324,1063 1368,899 1368,688C1368,451 1312,273 1201,152C1089,31 928,-29 719,-29C562,-29 434,4 334,70l-74,-90C243,-42 219,-53 190,-53C165,-53 144,-44 127,-26C109,-9 100,12 100,37C100,59 107,78 121,94l82,101C114,313 70,477 70,688M315,688C315,570 332,472 365,393l596,733C898,1171 817,1194 719,1194C450,1194 315,1025 315,688M479,250C538,206 618,184 719,184C988,184 1122,352 1122,688C1122,806 1106,904 1073,981z"
   horiz-adv-x="1437"
   unicode="Ø" />
<glyph
   id="glyph314"
   d="M123,451l0,825C123,1309 135,1338 158,1361C181,1384 209,1395 242,1395C275,1395 303,1384 326,1361C349,1338 360,1309 360,1276l0,-825C360,416 364,384 372,355C380,326 394,297 413,270C432,242 460,220 499,204C538,188 584,180 639,180C694,180 740,188 779,204C818,220 847,242 866,270C885,297 898,326 906,355C914,384 918,416 918,451l0,825C918,1309 930,1338 953,1361C976,1384 1003,1395 1036,1395C1069,1395 1098,1384 1121,1361C1144,1338 1155,1309 1155,1276l0,-825C1155,401 1151,354 1142,311C1133,268 1116,225 1092,182C1068,139 1037,103 1000,73C963,42 913,18 852,-1C790,-20 719,-29 639,-29C559,-29 488,-20 427,-1C365,18 315,42 278,73C241,103 210,139 186,182C162,225 146,268 137,311C128,354 123,401 123,451M479,1786C500,1807 522,1818 545,1819C568,1820 587,1811 602,1792l174,-221C788,1559 793,1545 792,1528C791,1511 782,1494 766,1479C735,1450 704,1450 672,1479l-201,184C454,1678 445,1697 446,1720C447,1743 458,1765 479,1786z"
   horiz-adv-x="1267"
   unicode="Ù" />
<glyph
   id="glyph316"
   d="M123,451l0,825C123,1309 135,1338 158,1361C181,1384 209,1395 242,1395C275,1395 303,1384 326,1361C349,1338 360,1309 360,1276l0,-825C360,416 364,384 372,355C380,326 394,297 413,270C432,242 460,220 499,204C538,188 584,180 639,180C694,180 740,188 779,204C818,220 847,242 866,270C885,297 898,326 906,355C914,384 918,416 918,451l0,825C918,1309 930,1338 953,1361C976,1384 1003,1395 1036,1395C1069,1395 1098,1384 1121,1361C1144,1338 1155,1309 1155,1276l0,-825C1155,401 1151,354 1142,311C1133,268 1116,225 1092,182C1068,139 1037,103 1000,73C963,42 913,18 852,-1C790,-20 719,-29 639,-29C559,-29 488,-20 427,-1C365,18 315,42 278,73C241,103 210,139 186,182C162,225 146,268 137,311C128,354 123,401 123,451M545,1571l174,221C734,1811 753,1820 776,1819C799,1818 821,1807 842,1786C863,1765 874,1743 875,1720C876,1697 867,1678 850,1663l-201,-184C617,1450 586,1450 555,1479C539,1494 530,1511 529,1528C528,1545 533,1559 545,1571z"
   horiz-adv-x="1267"
   unicode="Ú" />
<glyph
   id="glyph318"
   d="M123,451l0,825C123,1309 135,1338 158,1361C181,1384 209,1395 242,1395C275,1395 303,1384 326,1361C349,1338 360,1309 360,1276l0,-825C360,416 364,384 372,355C380,326 394,297 413,270C432,242 460,220 499,204C538,188 584,180 639,180C694,180 740,188 779,204C818,220 847,242 866,270C885,297 898,326 906,355C914,384 918,416 918,451l0,825C918,1309 930,1338 953,1361C976,1384 1003,1395 1036,1395C1069,1395 1098,1384 1121,1361C1144,1338 1155,1309 1155,1276l0,-825C1155,401 1151,354 1142,311C1133,268 1116,225 1092,182C1068,139 1037,103 1000,73C963,42 913,18 852,-1C790,-20 719,-29 639,-29C559,-29 488,-20 427,-1C365,18 315,42 278,73C241,103 210,139 186,182C162,225 146,268 137,311C128,354 123,401 123,451M373,1544C373,1572 385,1595 410,1612l190,127C613,1748 629,1753 647,1753C665,1753 681,1748 694,1739l191,-127C910,1595 922,1572 922,1544C922,1521 914,1502 899,1487C884,1472 865,1464 842,1464C823,1464 808,1469 795,1479l-148,102l-147,-102C487,1469 472,1464 453,1464C430,1464 411,1472 396,1487C381,1502 373,1521 373,1544z"
   horiz-adv-x="1267"
   unicode="Û" />
<glyph
   id="glyph320"
   d="M123,451l0,825C123,1309 135,1338 158,1361C181,1384 209,1395 242,1395C275,1395 303,1384 326,1361C349,1338 360,1309 360,1276l0,-825C360,416 364,384 372,355C380,326 394,297 413,270C432,242 460,220 499,204C538,188 584,180 639,180C694,180 740,188 779,204C818,220 847,242 866,270C885,297 898,326 906,355C914,384 918,416 918,451l0,825C918,1309 930,1338 953,1361C976,1384 1003,1395 1036,1395C1069,1395 1098,1384 1121,1361C1144,1338 1155,1309 1155,1276l0,-825C1155,401 1151,354 1142,311C1133,268 1116,225 1092,182C1068,139 1037,103 1000,73C963,42 913,18 852,-1C790,-20 719,-29 639,-29C559,-29 488,-20 427,-1C365,18 315,42 278,73C241,103 210,139 186,182C162,225 146,268 137,311C128,354 123,401 123,451M354,1620C354,1693 388,1729 457,1729C525,1729 559,1693 559,1620C559,1551 525,1516 457,1516C388,1516 354,1551 354,1620M725,1620C725,1693 759,1729 827,1729C896,1729 930,1693 930,1620C930,1551 896,1516 827,1516C759,1516 725,1551 725,1620z"
   horiz-adv-x="1267"
   unicode="Ü" />
<glyph
   id="glyph322"
   d="M39,1276C39,1309 51,1338 74,1361C97,1384 125,1395 158,1395C200,1395 233,1376 258,1339l309,-485l310,485C900,1376 933,1395 977,1395C1010,1395 1038,1384 1061,1361C1084,1338 1096,1309 1096,1276C1096,1250 1090,1229 1077,1212l-391,-583l0,-527C686,69 675,42 652,19C629,-4 600,-16 567,-16C534,-16 507,-5 484,18C461,41 449,69 449,102l0,527l-392,583C45,1228 39,1249 39,1276M481,1571l174,221C670,1811 689,1820 712,1819C735,1818 757,1807 778,1786C799,1765 810,1743 811,1720C812,1697 803,1678 786,1663l-200,-184C554,1450 523,1450 492,1479C476,1494 467,1511 466,1528C464,1545 469,1559 481,1571z"
   horiz-adv-x="1134"
   unicode="Ý" />
<glyph
   id="glyph324"
   d="M123,102l0,1174C123,1309 135,1338 158,1361C181,1384 209,1395 242,1395C275,1395 303,1384 326,1361C349,1338 360,1309 360,1276l0,-139l273,0C760,1137 863,1101 943,1030C1023,959 1063,854 1063,717C1063,580 1023,476 944,404C864,331 760,295 633,295l-273,0l0,-193C360,69 349,41 326,18C303,-5 275,-16 242,-16C209,-16 181,-4 158,19C135,42 123,69 123,102M360,508l254,0C678,508 728,526 764,563C799,600 817,651 817,717C817,784 799,835 763,871C727,906 677,924 614,924l-254,0z"
   horiz-adv-x="1130"
   unicode="Þ" />
<glyph
   id="glyph326"
   d="M102,90l0,911C102,1115 141,1211 218,1288C295,1365 397,1403 526,1403C644,1403 741,1371 816,1308C891,1244 928,1168 928,1081C928,1036 918,997 899,962C880,927 856,899 828,878C800,857 772,837 745,819C717,800 693,780 674,759C655,737 645,713 645,688C645,668 654,650 673,635C692,620 716,607 745,597C774,586 807,576 843,566C879,555 915,542 951,527C987,512 1020,494 1049,473C1078,452 1102,425 1121,390C1140,355 1149,314 1149,268C1149,175 1114,103 1044,53C974,2 884,-23 774,-23C693,-23 620,-8 555,22C490,51 442,84 412,121C395,142 387,163 387,184C387,211 397,234 416,254C435,273 458,283 485,283C506,283 528,275 549,258C618,202 693,174 774,174C875,174 926,201 926,256C926,279 917,300 899,317C880,334 856,348 827,359C797,370 764,382 729,393C693,404 657,417 622,432C586,447 553,464 524,485C494,505 470,532 452,566C433,600 424,639 424,684C424,716 431,747 445,776C459,805 477,829 498,849C519,868 541,888 566,908C590,928 613,946 634,963C655,979 672,997 686,1018C700,1039 707,1060 707,1081C707,1112 693,1141 665,1169C636,1196 590,1210 526,1210C468,1210 420,1192 382,1157C343,1122 324,1075 324,1018l0,-928C324,60 313,35 292,15C270,-6 244,-16 213,-16C180,-16 154,-6 133,14C112,34 102,59 102,90z"
   horiz-adv-x="1204"
   unicode="ß" />
<glyph
   id="glyph328"
   d="M55,283C55,374 87,444 151,495C214,546 293,571 387,571l268,0l0,37C655,655 639,692 606,720C573,748 528,762 469,762C429,762 393,755 361,741C329,727 297,708 264,684C245,671 224,664 203,664C176,664 154,673 135,692C116,711 106,733 106,760C106,785 115,807 133,827C212,914 324,958 469,958C596,958 696,928 767,868C838,808 874,724 874,616l0,-524C874,63 863,37 842,16C821,-5 795,-16 766,-16C737,-16 711,-5 690,16C668,37 657,63 657,92C608,13 518,-27 389,-27C289,-27 208,2 147,59C86,116 55,191 55,283M276,283C276,243 290,212 319,191C347,169 389,158 446,158C503,158 553,175 594,209C635,242 655,287 655,342l0,57l-239,0C371,399 337,389 313,369C288,349 276,320 276,283M324,1360C345,1381 367,1392 390,1393C413,1394 431,1385 446,1366l175,-221C633,1133 638,1119 637,1102C635,1085 626,1068 610,1053C579,1024 548,1024 516,1053l-201,184C298,1252 289,1271 290,1294C291,1317 302,1339 324,1360z"
   horiz-adv-x="966"
   unicode="à" />
<glyph
   id="glyph330"
   d="M55,283C55,374 87,444 151,495C214,546 293,571 387,571l268,0l0,37C655,655 639,692 606,720C573,748 528,762 469,762C429,762 393,755 361,741C329,727 297,708 264,684C245,671 224,664 203,664C176,664 154,673 135,692C116,711 106,733 106,760C106,785 115,807 133,827C212,914 324,958 469,958C596,958 696,928 767,868C838,808 874,724 874,616l0,-524C874,63 863,37 842,16C821,-5 795,-16 766,-16C737,-16 711,-5 690,16C668,37 657,63 657,92C608,13 518,-27 389,-27C289,-27 208,2 147,59C86,116 55,191 55,283M276,283C276,243 290,212 319,191C347,169 389,158 446,158C503,158 553,175 594,209C635,242 655,287 655,342l0,57l-239,0C371,399 337,389 313,369C288,349 276,320 276,283M362,1145l175,221C552,1385 571,1394 594,1393C617,1392 638,1381 659,1360C681,1339 692,1317 693,1294C694,1271 685,1252 668,1237l-201,-184C435,1024 404,1024 373,1053C357,1068 348,1085 347,1102C345,1119 350,1133 362,1145z"
   horiz-adv-x="966"
   unicode="á" />
<glyph
   id="glyph332"
   d="M55,283C55,374 87,444 151,495C214,546 293,571 387,571l268,0l0,37C655,655 639,692 606,720C573,748 528,762 469,762C429,762 393,755 361,741C329,727 297,708 264,684C245,671 224,664 203,664C176,664 154,673 135,692C116,711 106,733 106,760C106,785 115,807 133,827C212,914 324,958 469,958C596,958 696,928 767,868C838,808 874,724 874,616l0,-524C874,63 863,37 842,16C821,-5 795,-16 766,-16C737,-16 711,-5 690,16C668,37 657,63 657,92C608,13 518,-27 389,-27C289,-27 208,2 147,59C86,116 55,191 55,283M207,1137C207,1164 219,1187 244,1204l190,127C448,1341 464,1346 481,1346C498,1346 514,1341 528,1331l191,-127C744,1187 756,1164 756,1137C756,1114 748,1095 733,1080C718,1065 699,1057 676,1057C656,1057 640,1062 629,1071l-148,103l-147,-103C323,1062 307,1057 287,1057C264,1057 245,1065 230,1080C215,1095 207,1114 207,1137M276,283C276,243 290,212 319,191C347,169 389,158 446,158C503,158 553,175 594,209C635,242 655,287 655,342l0,57l-239,0C371,399 337,389 313,369C288,349 276,320 276,283z"
   horiz-adv-x="966"
   unicode="â" />
<glyph
   id="glyph334"
   d="M55,283C55,374 87,444 151,495C214,546 293,571 387,571l268,0l0,37C655,655 639,692 606,720C573,748 528,762 469,762C429,762 393,755 361,741C329,727 297,708 264,684C245,671 224,664 203,664C176,664 154,673 135,692C116,711 106,733 106,760C106,785 115,807 133,827C212,914 324,958 469,958C596,958 696,928 767,868C838,808 874,724 874,616l0,-524C874,63 863,37 842,16C821,-5 795,-16 766,-16C737,-16 711,-5 690,16C668,37 657,63 657,92C608,13 518,-27 389,-27C289,-27 208,2 147,59C86,116 55,191 55,283M160,1157C160,1171 162,1182 166,1190C180,1223 203,1249 235,1268C266,1287 302,1296 342,1296C383,1296 432,1285 489,1262C545,1239 584,1227 606,1227C626,1227 644,1238 659,1260C675,1283 698,1294 727,1294C750,1294 769,1286 784,1271C799,1256 807,1237 807,1214C807,1201 805,1190 801,1182C787,1149 764,1123 732,1104C700,1085 664,1075 625,1075C583,1075 533,1087 475,1110C417,1133 379,1145 360,1145C340,1145 322,1134 307,1112C290,1089 268,1077 240,1077C217,1077 198,1085 183,1100C168,1115 160,1134 160,1157M276,283C276,243 290,212 319,191C347,169 389,158 446,158C503,158 553,175 594,209C635,242 655,287 655,342l0,57l-239,0C371,399 337,389 313,369C288,349 276,320 276,283z"
   horiz-adv-x="966"
   unicode="ã" />
<glyph
   id="glyph336"
   d="M55,283C55,374 87,444 151,495C214,546 293,571 387,571l268,0l0,37C655,655 639,692 606,720C573,748 528,762 469,762C429,762 393,755 361,741C329,727 297,708 264,684C245,671 224,664 203,664C176,664 154,673 135,692C116,711 106,733 106,760C106,785 115,807 133,827C212,914 324,958 469,958C596,958 696,928 767,868C838,808 874,724 874,616l0,-524C874,63 863,37 842,16C821,-5 795,-16 766,-16C737,-16 711,-5 690,16C668,37 657,63 657,92C608,13 518,-27 389,-27C289,-27 208,2 147,59C86,116 55,191 55,283M195,1171C195,1244 229,1280 297,1280C365,1280 399,1244 399,1171C399,1102 365,1067 297,1067C229,1067 195,1102 195,1171M276,283C276,243 290,212 319,191C347,169 389,158 446,158C503,158 553,175 594,209C635,242 655,287 655,342l0,57l-239,0C371,399 337,389 313,369C288,349 276,320 276,283M565,1171C565,1244 599,1280 668,1280C736,1280 770,1244 770,1171C770,1102 736,1067 668,1067C599,1067 565,1102 565,1171z"
   horiz-adv-x="966"
   unicode="ä" />
<glyph
   id="glyph338"
   d="M55,283C55,374 87,444 151,495C214,546 293,571 387,571l268,0l0,37C655,655 639,692 606,720C573,748 528,762 469,762C429,762 393,755 361,741C329,727 297,708 264,684C245,671 224,664 203,664C176,664 154,673 135,692C116,711 106,733 106,760C106,785 115,807 133,827C212,914 324,958 469,958C596,958 696,928 767,868C838,808 874,724 874,616l0,-524C874,63 863,37 842,16C821,-5 795,-16 766,-16C737,-16 711,-5 690,16C668,37 657,63 657,92C608,13 518,-27 389,-27C289,-27 208,2 147,59C86,116 55,191 55,283M321,1080C284,1115 266,1165 266,1229C266,1293 284,1343 321,1379C358,1414 412,1432 483,1432C554,1432 608,1414 645,1379C682,1343 700,1293 700,1229C700,1165 682,1115 645,1080C608,1044 554,1026 483,1026C412,1026 358,1044 321,1080M276,283C276,243 290,212 319,191C347,169 389,158 446,158C503,158 553,175 594,209C635,242 655,287 655,342l0,57l-239,0C371,399 337,389 313,369C288,349 276,320 276,283M483,1128C552,1128 586,1162 586,1229C586,1262 578,1287 562,1304C546,1321 520,1329 483,1329C446,1329 420,1321 405,1304C389,1287 381,1262 381,1229C381,1196 389,1171 405,1154C420,1137 446,1128 483,1128z"
   horiz-adv-x="966"
   unicode="å" />
<glyph
   id="glyph340"
   d="M55,283C55,374 87,444 151,495C214,546 293,571 387,571l268,0l0,37C655,655 639,692 606,720C573,748 528,762 469,762C429,762 393,755 361,741C329,727 297,708 264,684C245,671 224,664 203,664C176,664 154,673 135,692C116,711 106,733 106,760C106,785 115,807 133,827C212,914 324,958 469,958C610,958 717,921 788,848C863,921 966,958 1096,958C1162,958 1220,948 1271,929C1322,909 1361,885 1390,856C1419,827 1442,794 1460,755C1478,716 1490,681 1496,648C1502,615 1505,583 1505,551C1505,530 1505,515 1504,504C1503,493 1501,478 1497,461C1492,444 1486,431 1478,422C1470,413 1458,405 1441,398C1424,391 1404,387 1380,387l-506,0C874,313 896,259 940,224C984,189 1042,172 1114,172C1186,172 1254,193 1317,236C1341,251 1363,258 1382,258C1409,258 1432,249 1451,230C1470,211 1479,189 1479,162C1479,132 1467,107 1444,86C1428,71 1408,56 1385,41C1361,26 1324,11 1274,-4C1224,-19 1171,-27 1114,-27C1029,-27 955,-13 892,16C829,44 780,86 745,141C720,106 695,77 669,55C642,32 605,13 558,-3C510,-19 454,-27 389,-27C289,-27 208,2 147,59C86,116 55,191 55,283M276,283C276,243 290,212 319,191C347,169 389,158 446,158C503,158 553,175 594,209C635,242 655,287 655,342l0,57l-239,0C371,399 337,389 313,369C288,349 276,320 276,283M881,571l405,0C1286,626 1270,673 1238,712C1205,751 1158,770 1096,770C1035,770 985,753 946,719C907,684 886,635 881,571z"
   horiz-adv-x="1556"
   unicode="æ" />
<glyph
   id="glyph342"
   d="M59,467C59,631 98,754 175,836C252,917 361,958 504,958C561,958 615,949 665,931C715,913 752,895 777,876C802,857 822,837 838,817C853,796 860,775 860,754C860,727 851,703 832,684C813,665 789,655 762,655C733,655 707,667 686,690C637,743 576,770 504,770C433,770 378,744 340,691C302,638 283,564 283,467C283,368 302,293 340,241C378,188 433,162 504,162C533,162 561,167 590,177C618,187 639,197 653,206C666,215 684,227 707,244C726,257 747,264 768,264C795,264 819,255 838,236C857,217 866,193 866,166C866,137 854,111 831,90C799,61 755,34 699,10C643,-15 578,-27 504,-27l-25,0l-8,-82C489,-104 513,-102 543,-102C601,-102 648,-118 684,-150C719,-182 737,-227 737,-285C737,-417 663,-483 514,-483C487,-483 459,-479 428,-471C397,-463 371,-452 350,-438C335,-428 328,-414 328,-395C328,-380 333,-368 344,-357C354,-347 366,-342 381,-342C390,-342 398,-344 406,-348C446,-367 485,-377 522,-377C555,-377 580,-370 597,-356C614,-343 623,-319 623,-285C623,-228 586,-199 512,-199C500,-199 484,-201 465,-205C446,-209 431,-211 422,-211C393,-211 379,-196 379,-166l0,152C276,8 197,59 142,140C87,220 59,329 59,467z"
   horiz-adv-x="923"
   unicode="ç" />
<glyph
   id="glyph344"
   d="M61,469C61,625 100,746 178,831C255,916 364,958 504,958C570,958 628,948 679,929C730,909 769,885 798,856C827,827 850,794 868,755C886,716 898,681 904,648C910,615 913,583 913,551C913,530 913,515 912,504C911,493 909,478 905,461C900,444 894,431 886,422C878,413 866,405 849,398C832,391 812,387 788,387l-505,0C283,316 305,263 349,227C393,190 451,172 522,172C594,172 662,193 725,236C749,251 771,258 791,258C818,258 840,249 859,230C878,211 887,189 887,162C887,132 875,107 852,86C836,71 816,56 793,41C769,26 732,11 682,-4C632,-19 579,-27 522,-27C375,-27 262,14 182,96C101,178 61,302 61,469M289,571l405,0C694,626 678,673 646,712C613,751 566,770 504,770C443,770 393,753 354,719C315,684 294,635 289,571M360,1360C381,1381 403,1392 426,1393C449,1394 468,1385 483,1366l174,-221C669,1133 674,1119 673,1102C672,1085 663,1068 647,1053C616,1024 585,1024 553,1053l-201,184C335,1252 326,1271 327,1294C328,1317 339,1339 360,1360z"
   horiz-adv-x="964"
   unicode="è" />
<glyph
   id="glyph346"
   d="M61,469C61,625 100,746 178,831C255,916 364,958 504,958C570,958 628,948 679,929C730,909 769,885 798,856C827,827 850,794 868,755C886,716 898,681 904,648C910,615 913,583 913,551C913,530 913,515 912,504C911,493 909,478 905,461C900,444 894,431 886,422C878,413 866,405 849,398C832,391 812,387 788,387l-505,0C283,316 305,263 349,227C393,190 451,172 522,172C594,172 662,193 725,236C749,251 771,258 791,258C818,258 840,249 859,230C878,211 887,189 887,162C887,132 875,107 852,86C836,71 816,56 793,41C769,26 732,11 682,-4C632,-19 579,-27 522,-27C375,-27 262,14 182,96C101,178 61,302 61,469M289,571l405,0C694,626 678,673 646,712C613,751 566,770 504,770C443,770 393,753 354,719C315,684 294,635 289,571M375,1145l174,221C564,1385 583,1394 606,1393C629,1392 651,1381 672,1360C693,1339 704,1317 705,1294C706,1271 697,1252 680,1237l-201,-184C447,1024 416,1024 385,1053C369,1068 360,1085 359,1102C358,1119 363,1133 375,1145z"
   horiz-adv-x="964"
   unicode="é" />
<glyph
   id="glyph348"
   d="M61,469C61,625 100,746 178,831C255,916 364,958 504,958C570,958 628,948 679,929C730,909 769,885 798,856C827,827 850,794 868,755C886,716 898,681 904,648C910,615 913,583 913,551C913,530 913,515 912,504C911,493 909,478 905,461C900,444 894,431 886,422C878,413 866,405 849,398C832,391 812,387 788,387l-505,0C283,316 305,263 349,227C393,190 451,172 522,172C594,172 662,193 725,236C749,251 771,258 791,258C818,258 840,249 859,230C878,211 887,189 887,162C887,132 875,107 852,86C836,71 816,56 793,41C769,26 732,11 682,-4C632,-19 579,-27 522,-27C375,-27 262,14 182,96C101,178 61,302 61,469M229,1137C229,1164 241,1187 266,1204l191,127C471,1341 487,1346 504,1346C521,1346 537,1341 551,1331l190,-127C766,1187 778,1164 778,1137C778,1114 770,1095 755,1080C740,1065 721,1057 698,1057C678,1057 662,1062 651,1071l-147,103l-148,-103C344,1062 328,1057 309,1057C286,1057 267,1065 252,1080C237,1095 229,1114 229,1137M289,571l405,0C694,626 678,673 646,712C613,751 566,770 504,770C443,770 393,753 354,719C315,684 294,635 289,571z"
   horiz-adv-x="964"
   unicode="ê" />
<glyph
   id="glyph350"
   d="M61,469C61,625 100,746 178,831C255,916 364,958 504,958C570,958 628,948 679,929C730,909 769,885 798,856C827,827 850,794 868,755C886,716 898,681 904,648C910,615 913,583 913,551C913,530 913,515 912,504C911,493 909,478 905,461C900,444 894,431 886,422C878,413 866,405 849,398C832,391 812,387 788,387l-505,0C283,316 305,263 349,227C393,190 451,172 522,172C594,172 662,193 725,236C749,251 771,258 791,258C818,258 840,249 859,230C878,211 887,189 887,162C887,132 875,107 852,86C836,71 816,56 793,41C769,26 732,11 682,-4C632,-19 579,-27 522,-27C375,-27 262,14 182,96C101,178 61,302 61,469M217,1171C217,1244 251,1280 319,1280C388,1280 422,1244 422,1171C422,1102 388,1067 319,1067C251,1067 217,1102 217,1171M289,571l405,0C694,626 678,673 646,712C613,751 566,770 504,770C443,770 393,753 354,719C315,684 294,635 289,571M588,1171C588,1244 622,1280 690,1280C759,1280 793,1244 793,1171C793,1102 759,1067 690,1067C622,1067 588,1102 588,1171z"
   horiz-adv-x="964"
   unicode="ë" />
<glyph
   id="glyph352"
   d="M59,1360C80,1381 102,1392 125,1393C148,1394 167,1385 182,1366l174,-221C368,1133 373,1119 372,1102C371,1085 362,1068 346,1053C315,1024 284,1024 252,1053l-201,184C34,1252 25,1271 26,1294C27,1317 38,1339 59,1360M113,94l0,742C113,867 124,893 145,914C166,935 192,946 223,946C254,946 280,935 302,914C323,893 334,867 334,836l0,-742C334,63 323,37 302,16C280,-5 254,-16 223,-16C192,-16 166,-5 145,16C124,37 113,63 113,94z"
   horiz-adv-x="436"
   unicode="ì" />
<glyph
   id="glyph354"
   d="M100,1145l174,221C289,1385 308,1394 331,1393C354,1392 376,1381 397,1360C419,1339 430,1317 431,1294C432,1271 423,1252 406,1237l-201,-184C173,1024 142,1024 111,1053C95,1068 86,1085 85,1102C83,1119 88,1133 100,1145M113,94l0,742C113,867 124,893 145,914C166,935 192,946 223,946C254,946 280,935 302,914C323,893 334,867 334,836l0,-742C334,63 323,37 302,16C280,-5 254,-16 223,-16C192,-16 166,-5 145,16C124,37 113,63 113,94z"
   horiz-adv-x="436"
   unicode="í" />
<glyph
   id="glyph356"
   d="M-51,1137C-51,1164 -39,1187 -14,1204l190,127C190,1341 206,1346 223,1346C240,1346 256,1341 270,1331l191,-127C486,1187 498,1164 498,1137C498,1114 490,1095 475,1080C460,1065 441,1057 418,1057C398,1057 382,1062 371,1071l-148,103l-147,-103C64,1062 48,1057 29,1057C6,1057 -13,1065 -28,1080C-43,1095 -51,1114 -51,1137M113,94l0,742C113,867 124,893 145,914C166,935 192,946 223,946C254,946 280,935 302,914C323,893 334,867 334,836l0,-742C334,63 323,37 302,16C280,-5 254,-16 223,-16C192,-16 166,-5 145,16C124,37 113,63 113,94z"
   horiz-adv-x="436"
   unicode="î" />
<glyph
   id="glyph358"
   d="M-63,1171C-63,1244 -29,1280 39,1280C107,1280 141,1244 141,1171C141,1102 107,1067 39,1067C-29,1067 -63,1102 -63,1171M113,94l0,742C113,867 124,893 145,914C166,935 192,946 223,946C254,946 280,935 302,914C323,893 334,867 334,836l0,-742C334,63 323,37 302,16C280,-5 254,-16 223,-16C192,-16 166,-5 145,16C124,37 113,63 113,94M307,1171C307,1244 341,1280 410,1280C478,1280 512,1244 512,1171C512,1102 478,1067 410,1067C341,1067 307,1102 307,1171z"
   horiz-adv-x="436"
   unicode="ï" />
<glyph
   id="glyph360"
   d="M59,465C59,629 98,752 177,835C256,917 366,958 508,958C582,958 645,944 698,915C677,986 647,1046 610,1096l-90,-60C508,1028 493,1024 475,1024C450,1024 428,1033 409,1052C390,1071 381,1093 381,1118C381,1151 395,1177 424,1196l45,31C434,1250 392,1273 342,1294C305,1309 287,1336 287,1374C287,1397 295,1417 312,1434C328,1450 348,1458 371,1458C386,1458 402,1455 420,1448C497,1416 565,1376 625,1327l73,49C711,1385 726,1389 743,1389C768,1389 791,1380 810,1361C829,1342 838,1319 838,1294C838,1261 824,1236 795,1217l-39,-25C885,1021 952,787 956,489l0,-24C956,302 917,179 838,97C759,14 649,-27 508,-27C367,-27 257,14 178,97C99,179 59,302 59,465M283,465C283,365 302,290 340,239C378,188 434,162 508,162C582,162 638,188 676,239C714,290 733,365 733,465C733,668 658,770 508,770C358,770 283,668 283,465z"
   horiz-adv-x="1019"
   unicode="ð" />
<glyph
   id="glyph362"
   d="M102,90l0,746C102,867 113,893 135,914C156,935 182,946 213,946C244,946 270,935 292,914C313,893 324,867 324,836C347,870 380,899 425,923C469,946 523,958 586,958C815,958 930,839 930,602l0,-512C930,60 919,35 898,15C876,-6 850,-16 819,-16C786,-16 760,-6 740,14C719,34 709,59 709,90l0,471C709,692 649,758 528,758C392,758 324,688 324,547l0,-457C324,59 313,34 292,14C271,-6 244,-16 213,-16C182,-16 155,-6 134,14C113,34 102,59 102,90M205,1157C205,1171 207,1182 211,1190C225,1223 248,1249 280,1268C311,1287 347,1296 387,1296C428,1296 477,1285 534,1262C590,1239 629,1227 651,1227C672,1227 690,1238 705,1260C721,1283 743,1294 772,1294C795,1294 814,1286 829,1271C844,1256 852,1237 852,1214C852,1201 850,1190 846,1182C832,1149 809,1123 777,1104C745,1085 709,1075 670,1075C628,1075 578,1087 521,1110C463,1133 425,1145 406,1145C385,1145 367,1134 352,1112C336,1089 314,1077 285,1077C262,1077 243,1085 228,1100C213,1115 205,1134 205,1157z"
   horiz-adv-x="1021"
   unicode="ñ" />
<glyph
   id="glyph364"
   d="M59,465C59,629 98,752 177,835C256,917 366,958 508,958C650,958 760,917 839,835C917,752 956,629 956,465C956,302 917,179 838,97C759,14 649,-27 508,-27C367,-27 257,14 178,97C99,179 59,302 59,465M283,465C283,365 302,290 340,239C378,188 434,162 508,162C582,162 638,188 676,239C714,290 733,365 733,465C733,668 658,770 508,770C358,770 283,668 283,465M371,1360C392,1381 414,1392 437,1393C460,1394 479,1385 494,1366l174,-221C680,1133 685,1119 684,1102C682,1085 673,1068 657,1053C626,1024 595,1024 563,1053l-201,184C345,1252 336,1271 337,1294C338,1317 349,1339 371,1360z"
   horiz-adv-x="1015"
   unicode="ò" />
<glyph
   id="glyph366"
   d="M59,465C59,629 98,752 177,835C256,917 366,958 508,958C650,958 760,917 839,835C917,752 956,629 956,465C956,302 917,179 838,97C759,14 649,-27 508,-27C367,-27 257,14 178,97C99,179 59,302 59,465M283,465C283,365 302,290 340,239C378,188 434,162 508,162C582,162 638,188 676,239C714,290 733,365 733,465C733,668 658,770 508,770C358,770 283,668 283,465M399,1145l174,221C588,1385 607,1394 630,1393C653,1392 675,1381 696,1360C718,1339 729,1317 730,1294C731,1271 722,1252 705,1237l-201,-184C472,1024 441,1024 410,1053C394,1068 385,1085 384,1102C382,1119 387,1133 399,1145z"
   horiz-adv-x="1015"
   unicode="ó" />
<glyph
   id="glyph368"
   d="M59,465C59,629 98,752 177,835C256,917 366,958 508,958C650,958 760,917 839,835C917,752 956,629 956,465C956,302 917,179 838,97C759,14 649,-27 508,-27C367,-27 257,14 178,97C99,179 59,302 59,465M238,1137C238,1165 250,1187 274,1204l191,127C479,1341 495,1346 512,1346C529,1346 545,1341 559,1331l191,-127C774,1187 786,1165 786,1137C786,1114 779,1095 764,1080C749,1065 730,1057 707,1057C686,1057 670,1062 659,1071l-147,103l-147,-103C354,1062 338,1057 317,1057C294,1057 276,1065 261,1080C246,1095 238,1114 238,1137M283,465C283,365 302,290 340,239C378,188 434,162 508,162C582,162 638,188 676,239C714,290 733,365 733,465C733,668 658,770 508,770C358,770 283,668 283,465z"
   horiz-adv-x="1015"
   unicode="ô" />
<glyph
   id="glyph370"
   d="M59,465C59,629 98,752 177,835C256,917 366,958 508,958C650,958 760,917 839,835C917,752 956,629 956,465C956,302 917,179 838,97C759,14 649,-27 508,-27C367,-27 257,14 178,97C99,179 59,302 59,465M190,1157C190,1170 192,1181 197,1190C211,1223 234,1249 266,1268C297,1287 333,1296 373,1296C414,1296 463,1285 520,1262C576,1239 615,1227 637,1227C657,1227 675,1238 690,1260C706,1283 729,1294 758,1294C781,1294 800,1286 815,1271C830,1256 838,1237 838,1214C838,1202 836,1191 831,1182C817,1149 794,1123 762,1104C730,1085 694,1075 655,1075C613,1075 563,1087 506,1110C448,1133 410,1145 391,1145C371,1145 353,1134 338,1112C322,1089 299,1077 270,1077C247,1077 228,1085 213,1100C198,1115 190,1134 190,1157M283,465C283,365 302,290 340,239C378,188 434,162 508,162C582,162 638,188 676,239C714,290 733,365 733,465C733,668 658,770 508,770C358,770 283,668 283,465z"
   horiz-adv-x="1015"
   unicode="õ" />
<glyph
   id="glyph372"
   d="M59,465C59,629 98,752 177,835C256,917 366,958 508,958C650,958 760,917 839,835C917,752 956,629 956,465C956,302 917,179 838,97C759,14 649,-27 508,-27C367,-27 257,14 178,97C99,179 59,302 59,465M223,1171C223,1244 257,1280 326,1280C394,1280 428,1244 428,1171C428,1102 394,1067 326,1067C257,1067 223,1102 223,1171M283,465C283,365 302,290 340,239C378,188 434,162 508,162C582,162 638,188 676,239C714,290 733,365 733,465C733,668 658,770 508,770C358,770 283,668 283,465M594,1171C594,1244 628,1280 696,1280C765,1280 799,1244 799,1171C799,1102 765,1067 696,1067C628,1067 594,1102 594,1171z"
   horiz-adv-x="1015"
   unicode="ö" />
<glyph
   id="glyph374"
   d="M94,543l742,0C861,543 883,534 902,515C921,496 930,474 930,449C930,424 921,402 902,383C883,364 861,354 836,354l-742,0C69,354 47,364 28,383C9,402 0,424 0,449C0,474 9,496 28,515C47,534 69,543 94,543M352,172C352,202 363,228 384,249C405,270 432,281 463,281C496,281 524,270 546,249C567,228 578,202 578,172C578,141 567,116 546,95C524,74 496,63 463,63C432,63 405,74 384,95C363,116 352,141 352,172M352,725C352,756 363,783 384,804C405,825 432,836 463,836C497,836 525,826 546,805C567,784 578,757 578,725C578,694 567,669 546,648C524,627 496,616 463,616C432,616 405,627 384,648C363,669 352,694 352,725z"
   horiz-adv-x="929"
   unicode="÷" />
<glyph
   id="glyph376"
   d="M39,66C39,88 47,107 63,123l56,57C79,256 59,351 59,465C59,629 98,752 177,835C256,917 366,958 508,958C619,958 711,933 784,883l52,53C853,953 872,961 895,961C918,961 937,953 953,937C969,921 977,902 977,879C977,857 969,838 952,821l-59,-63C935,680 956,582 956,465C956,302 917,179 838,97C759,14 649,-27 508,-27C393,-27 298,0 223,53l-43,-45C164,-8 144,-16 121,-16C98,-16 79,-8 63,8C47,24 39,43 39,66M283,465C283,424 286,389 291,362l348,367C604,756 560,770 508,770C358,770 283,668 283,465M369,207C405,177 451,162 508,162C582,162 638,188 676,239C714,290 733,365 733,465C733,503 730,541 723,580z"
   horiz-adv-x="1015"
   unicode="ø" />
<glyph
   id="glyph378"
   d="M92,358l0,478C92,867 103,893 125,914C146,935 172,946 203,946C234,946 260,935 281,914C302,893 313,867 313,836l0,-478C313,303 327,258 354,225C381,191 429,174 498,174C619,174 680,235 680,358l0,478C680,867 691,893 713,914C734,935 760,946 791,946C822,946 848,935 869,914C890,893 901,867 901,836l0,-478C901,303 895,255 884,212C872,169 852,129 824,92C795,54 754,25 699,4C644,-17 577,-27 498,-27C434,-27 378,-20 330,-6C281,8 242,27 213,50C183,73 159,102 141,136C122,170 110,205 103,240C96,275 92,315 92,358M342,1360C363,1381 385,1392 408,1393C431,1394 450,1385 465,1366l174,-221C651,1133 656,1119 655,1102C654,1085 645,1068 629,1053C598,1024 567,1024 535,1053l-201,184C317,1252 308,1271 309,1294C310,1317 321,1339 342,1360z"
   horiz-adv-x="993"
   unicode="ù" />
<glyph
   id="glyph380"
   d="M92,358l0,478C92,867 103,893 125,914C146,935 172,946 203,946C234,946 260,935 281,914C302,893 313,867 313,836l0,-478C313,303 327,258 354,225C381,191 429,174 498,174C619,174 680,235 680,358l0,478C680,867 691,893 713,914C734,935 760,946 791,946C822,946 848,935 869,914C890,893 901,867 901,836l0,-478C901,303 895,255 884,212C872,169 852,129 824,92C795,54 754,25 699,4C644,-17 577,-27 498,-27C434,-27 378,-20 330,-6C281,8 242,27 213,50C183,73 159,102 141,136C122,170 110,205 103,240C96,275 92,315 92,358M395,1145l174,221C584,1385 603,1394 626,1393C649,1392 671,1381 692,1360C713,1339 724,1317 725,1294C726,1271 717,1252 700,1237l-200,-184C468,1024 437,1024 406,1053C390,1068 381,1085 380,1102C378,1119 383,1133 395,1145z"
   horiz-adv-x="993"
   unicode="ú" />
<glyph
   id="glyph382"
   d="M92,358l0,478C92,867 103,893 125,914C146,935 172,946 203,946C234,946 260,935 281,914C302,893 313,867 313,836l0,-478C313,303 327,258 354,225C381,191 429,174 498,174C619,174 680,235 680,358l0,478C680,867 691,893 713,914C734,935 760,946 791,946C822,946 848,935 869,914C890,893 901,867 901,836l0,-478C901,303 895,255 884,212C872,169 852,129 824,92C795,54 754,25 699,4C644,-17 577,-27 498,-27C434,-27 378,-20 330,-6C281,8 242,27 213,50C183,73 159,102 141,136C122,170 110,205 103,240C96,275 92,315 92,358M227,1137C227,1164 239,1187 264,1204l191,127C469,1341 485,1346 502,1346C519,1346 535,1341 549,1331l190,-127C764,1187 776,1164 776,1137C776,1114 768,1095 753,1080C738,1065 719,1057 696,1057C676,1057 660,1062 649,1071l-147,103l-148,-103C343,1062 327,1057 307,1057C284,1057 265,1065 250,1080C235,1095 227,1114 227,1137z"
   horiz-adv-x="993"
   unicode="û" />
<glyph
   id="glyph384"
   d="M92,358l0,478C92,867 103,893 125,914C146,935 172,946 203,946C234,946 260,935 281,914C302,893 313,867 313,836l0,-478C313,303 327,258 354,225C381,191 429,174 498,174C619,174 680,235 680,358l0,478C680,867 691,893 713,914C734,935 760,946 791,946C822,946 848,935 869,914C890,893 901,867 901,836l0,-478C901,303 895,255 884,212C872,169 852,129 824,92C795,54 754,25 699,4C644,-17 577,-27 498,-27C434,-27 378,-20 330,-6C281,8 242,27 213,50C183,73 159,102 141,136C122,170 110,205 103,240C96,275 92,315 92,358M217,1171C217,1244 251,1280 319,1280C388,1280 422,1244 422,1171C422,1102 388,1067 319,1067C251,1067 217,1102 217,1171M588,1171C588,1244 622,1280 690,1280C759,1280 793,1244 793,1171C793,1102 759,1067 690,1067C622,1067 588,1102 588,1171z"
   horiz-adv-x="993"
   unicode="ü" />
<glyph
   id="glyph386"
   d="M88,-207C149,-207 198,-185 235,-141C272,-98 310,-29 348,66l-315,727C28,806 25,821 25,836C25,867 36,893 57,914C78,935 104,946 135,946C162,946 185,939 202,925C219,910 231,894 238,877l225,-570l225,570C695,894 707,910 724,925C741,939 764,946 791,946C822,946 848,935 869,914C890,893 901,867 901,836C901,821 898,806 893,793l-381,-861C409,-297 268,-412 88,-412C58,-412 33,-402 13,-382C-8,-363 -18,-338 -18,-309C-18,-280 -8,-255 13,-236C33,-217 58,-207 88,-207M373,1145l174,221C562,1385 581,1394 604,1393C627,1392 649,1381 670,1360C691,1339 702,1317 703,1294C704,1271 695,1252 678,1237l-201,-184C445,1024 414,1024 383,1053C367,1068 358,1085 357,1102C356,1119 361,1133 373,1145z"
   horiz-adv-x="925"
   unicode="ý" />
<glyph
   id="glyph388"
   d="M113,-301l0,1649C113,1379 124,1405 145,1426C166,1447 192,1458 223,1458C254,1458 280,1447 302,1426C323,1405 334,1379 334,1348l0,-512C353,867 384,895 427,920C470,945 521,958 580,958C713,958 814,917 885,836C956,754 991,631 991,467C991,302 955,179 884,97C813,14 710,-27 575,-27C524,-27 477,-17 434,2C390,21 357,45 334,76l0,-377C334,-332 323,-358 302,-379C280,-401 254,-412 223,-412C192,-412 166,-401 145,-379C124,-358 113,-332 113,-301M328,465C328,365 347,290 384,239C421,188 475,162 547,162C619,162 674,188 711,239C748,290 766,365 766,465C766,668 693,770 547,770C401,770 328,668 328,465z"
   horiz-adv-x="1052"
   unicode="þ" />
<glyph
   id="glyph390"
   d="M88,-207C149,-207 198,-185 235,-141C272,-98 310,-29 348,66l-315,727C28,806 25,821 25,836C25,867 36,893 57,914C78,935 104,946 135,946C162,946 185,939 202,925C219,910 231,894 238,877l225,-570l225,570C695,894 707,910 724,925C741,939 764,946 791,946C822,946 848,935 869,914C890,893 901,867 901,836C901,821 898,806 893,793l-381,-861C409,-297 268,-412 88,-412C58,-412 33,-402 13,-382C-8,-363 -18,-338 -18,-309C-18,-280 -8,-255 13,-236C33,-217 58,-207 88,-207M176,1171C176,1244 210,1280 279,1280C347,1280 381,1244 381,1171C381,1102 347,1067 279,1067C210,1067 176,1102 176,1171M547,1171C547,1244 581,1280 649,1280C718,1280 752,1244 752,1171C752,1102 718,1067 649,1067C581,1067 547,1102 547,1171z"
   horiz-adv-x="925"
   unicode="ÿ" />
<glyph
   id="glyph392"
   d="M70,688C70,927 126,1107 237,1227C348,1347 509,1407 719,1407C828,1407 920,1390 993,1356C1008,1371 1027,1378 1051,1378l639,0C1719,1378 1744,1368 1765,1347C1786,1326 1796,1301 1796,1272C1796,1243 1786,1218 1765,1197C1744,1176 1719,1165 1690,1165l-521,0l0,-366l387,0C1585,799 1609,789 1630,768C1651,747 1661,723 1661,694C1661,665 1651,641 1630,621C1609,600 1585,590 1556,590l-387,0l0,-377l543,0C1741,213 1767,203 1788,182C1809,161 1819,135 1819,106C1819,77 1809,52 1788,31C1767,10 1741,0 1712,0l-661,0C1026,0 1007,6 993,18C909,-13 818,-29 719,-29C510,-29 349,31 238,152C126,273 70,451 70,688M315,688C315,352 450,184 719,184C804,184 875,199 932,229l0,918C873,1178 802,1194 719,1194C450,1194 315,1025 315,688z"
   horiz-adv-x="1880"
   unicode="Œ" />
<glyph
   id="glyph394"
   d="M59,465C59,629 98,752 177,835C256,917 366,958 508,958C579,958 644,945 703,920C762,894 809,858 846,813C882,857 929,892 987,919C1044,945 1107,958 1176,958C1242,958 1300,948 1351,929C1402,909 1441,885 1470,856C1499,827 1522,794 1540,755C1558,716 1570,681 1576,648C1582,615 1585,583 1585,551C1585,530 1585,515 1584,504C1583,493 1581,478 1577,461C1572,444 1566,431 1558,422C1550,413 1538,405 1521,398C1504,391 1484,387 1460,387l-506,0C954,316 976,263 1021,227C1065,190 1123,172 1194,172C1266,172 1334,193 1397,236C1421,251 1443,258 1462,258C1489,258 1512,249 1531,230C1550,211 1559,189 1559,162C1559,132 1547,107 1524,86C1508,71 1488,56 1465,41C1441,26 1404,11 1354,-4C1304,-19 1251,-27 1194,-27C1120,-27 1053,-14 992,11C931,36 881,70 844,115C807,70 760,36 702,11C643,-14 579,-27 508,-27C367,-27 257,14 178,97C99,179 59,302 59,465M283,465C283,365 302,290 340,239C378,188 434,162 508,162C582,162 638,188 676,239C714,290 733,365 733,465C733,668 658,770 508,770C358,770 283,668 283,465M961,571l405,0C1366,626 1350,673 1318,712C1285,751 1238,770 1176,770C1115,770 1065,753 1026,719C987,684 966,635 961,571z"
   horiz-adv-x="1636"
   unicode="œ" />
<glyph
   id="glyph396"
   d="M39,1276C39,1309 51,1338 74,1361C97,1384 125,1395 158,1395C200,1395 233,1376 258,1339l309,-485l310,485C900,1376 933,1395 977,1395C1010,1395 1038,1384 1061,1361C1084,1338 1096,1309 1096,1276C1096,1250 1090,1229 1077,1212l-391,-583l0,-527C686,69 675,42 652,19C629,-4 600,-16 567,-16C534,-16 507,-5 484,18C461,41 449,69 449,102l0,527l-392,583C45,1228 39,1249 39,1276M281,1620C281,1693 315,1729 383,1729C451,1729 485,1693 485,1620C485,1551 451,1516 383,1516C315,1516 281,1551 281,1620M651,1620C651,1693 685,1729 754,1729C822,1729 856,1693 856,1620C856,1551 822,1516 754,1516C685,1516 651,1551 651,1620z"
   horiz-adv-x="1134"
   unicode="Ÿ" />
<glyph
   id="glyph398"
   d="M68,1137C68,1165 80,1187 104,1204l191,127C309,1341 325,1346 342,1346C359,1346 375,1341 389,1331l191,-127C604,1187 616,1165 616,1137C616,1114 609,1095 594,1080C579,1065 560,1057 537,1057C517,1057 501,1062 489,1071l-147,103l-147,-103C184,1062 168,1057 147,1057C124,1057 106,1065 91,1080C76,1095 68,1114 68,1137z"
   horiz-adv-x="684"
   unicode="ˆ" />
<glyph
   id="glyph400"
   d="M78,1157C78,1171 80,1182 84,1190C98,1223 121,1249 153,1268C184,1287 220,1296 260,1296C301,1296 350,1285 407,1262C463,1239 502,1227 524,1227C545,1227 563,1238 578,1260C594,1283 616,1294 645,1294C668,1294 687,1286 702,1271C717,1256 725,1237 725,1214C725,1201 723,1190 719,1182C705,1149 682,1123 650,1104C618,1085 582,1075 543,1075C501,1075 451,1087 394,1110C336,1133 298,1145 279,1145C258,1145 240,1134 225,1112C208,1089 186,1077 158,1077C135,1077 116,1085 101,1100C86,1115 78,1134 78,1157z"
   horiz-adv-x="804"
   unicode="˜" />
<glyph
   id="glyph402"
   horiz-adv-x="922"
   unicode=" " />
<glyph
   id="glyph404"
   horiz-adv-x="1845"
   unicode=" " />
<glyph
   id="glyph406"
   horiz-adv-x="922"
   unicode=" " />
<glyph
   id="glyph408"
   horiz-adv-x="1845"
   unicode=" " />
<glyph
   id="glyph410"
   horiz-adv-x="615"
   unicode=" " />
<glyph
   id="glyph412"
   horiz-adv-x="461"
   unicode=" " />
<glyph
   id="glyph414"
   horiz-adv-x="307"
   unicode=" " />
<glyph
   id="glyph416"
   horiz-adv-x="307"
   unicode=" " />
<glyph
   id="glyph418"
   horiz-adv-x="230"
   unicode=" " />
<glyph
   id="glyph420"
   horiz-adv-x="369"
   unicode=" " />
<glyph
   id="glyph422"
   horiz-adv-x="102"
   unicode=" " />
<glyph
   id="glyph424"
   d="M182,610l410,0C617,610 639,601 658,582C677,563 686,541 686,516C686,491 677,469 658,450C639,431 617,422 592,422l-410,0C157,422 135,431 116,450C97,469 88,491 88,516C88,541 97,563 116,582C135,601 157,610 182,610z"
   horiz-adv-x="774"
   unicode="‐" />
<glyph
   id="glyph426"
   d="M182,610l410,0C617,610 639,601 658,582C677,563 686,541 686,516C686,491 677,469 658,450C639,431 617,422 592,422l-410,0C157,422 135,431 116,450C97,469 88,491 88,516C88,541 97,563 116,582C135,601 157,610 182,610z"
   horiz-adv-x="774"
   unicode="‑" />
<glyph
   id="glyph428"
   d="M182,610l410,0C617,610 639,601 658,582C677,563 686,541 686,516C686,491 677,469 658,450C639,431 617,422 592,422l-410,0C157,422 135,431 116,450C97,469 88,491 88,516C88,541 97,563 116,582C135,601 157,610 182,610z"
   horiz-adv-x="774"
   unicode="‒" />
<glyph
   id="glyph430"
   d="M266,672l633,0C924,672 946,663 965,644C984,625 993,603 993,578C993,553 984,531 965,512C946,493 924,483 899,483l-633,0C241,483 219,493 200,512C181,531 172,553 172,578C172,603 181,625 200,644C219,663 241,672 266,672z"
   horiz-adv-x="1165"
   unicode="–" />
<glyph
   id="glyph432"
   d="M266,672l1268,0C1559,672 1581,663 1600,644C1619,625 1628,603 1628,578C1628,553 1619,531 1600,512C1581,493 1559,483 1534,483l-1268,0C241,483 219,493 200,512C181,531 172,553 172,578C172,603 181,625 200,644C219,663 241,672 266,672z"
   horiz-adv-x="1800"
   unicode="—" />
<glyph
   id="glyph434"
   d="M59,928C59,1025 81,1114 124,1195C167,1276 217,1339 274,1382C285,1391 296,1395 307,1395C320,1395 330,1391 339,1382C348,1373 352,1363 352,1350C352,1339 348,1329 340,1319C319,1293 304,1273 295,1260C286,1247 277,1228 268,1204C259,1179 254,1154 254,1128C254,1101 266,1068 291,1028C316,988 328,955 328,928C328,837 283,791 193,791C104,791 59,837 59,928z"
   horiz-adv-x="411"
   unicode="‘" />
<glyph
   id="glyph436"
   d="M59,836C59,845 63,855 72,866C93,892 108,912 117,925C126,938 136,957 145,982C154,1006 158,1031 158,1057C158,1084 146,1117 121,1157C96,1197 84,1230 84,1257C84,1302 96,1337 119,1360C142,1383 176,1395 219,1395C308,1395 352,1349 352,1257C352,1160 331,1071 288,990C245,909 194,846 137,803C126,795 115,791 104,791C91,791 81,795 72,804C63,813 59,823 59,836z"
   horiz-adv-x="411"
   unicode="’" />
<glyph
   id="glyph438"
   d="M59,-305C59,-295 63,-285 72,-274C93,-248 108,-228 117,-215C126,-202 136,-184 145,-159C154,-135 158,-110 158,-84C158,-57 146,-24 121,17C96,57 84,90 84,117C84,208 129,254 219,254C308,254 352,208 352,117C352,20 331,-69 288,-150C245,-232 194,-295 137,-338C126,-346 115,-350 104,-350C91,-350 81,-346 72,-337C63,-328 59,-318 59,-305z"
   horiz-adv-x="448"
   unicode="‚" />
<glyph
   id="glyph440"
   d="M59,928C59,1025 81,1114 124,1195C167,1276 217,1339 274,1382C285,1391 296,1395 307,1395C320,1395 330,1391 339,1382C348,1373 352,1363 352,1350C352,1339 348,1329 340,1319C319,1293 304,1273 295,1260C286,1247 277,1228 268,1204C259,1179 254,1154 254,1128C254,1101 266,1068 291,1028C316,988 328,955 328,928C328,837 283,791 193,791C104,791 59,837 59,928M393,928C393,1025 415,1114 458,1195C501,1276 551,1339 608,1382C619,1391 630,1395 641,1395C654,1395 664,1391 673,1382C682,1373 686,1363 686,1350C686,1339 682,1329 674,1319C653,1293 638,1273 629,1260C620,1247 611,1228 602,1204C593,1179 588,1154 588,1128C588,1101 600,1068 625,1028C650,988 662,955 662,928C662,883 650,849 627,826C604,803 570,791 526,791C437,791 393,837 393,928z"
   horiz-adv-x="745"
   unicode="“" />
<glyph
   id="glyph442"
   d="M59,836C59,845 63,855 72,866C93,892 108,912 117,925C126,938 136,957 145,982C154,1006 158,1031 158,1057C158,1084 146,1117 121,1157C96,1197 84,1230 84,1257C84,1302 96,1337 119,1360C142,1383 176,1395 219,1395C308,1395 352,1349 352,1257C352,1160 331,1071 288,990C245,909 194,846 137,803C126,795 115,791 104,791C91,791 81,795 72,804C63,813 59,823 59,836M393,836C393,845 397,855 406,866C427,892 442,912 451,925C460,938 470,957 479,982C488,1006 492,1031 492,1057C492,1084 480,1117 455,1157C430,1197 418,1230 418,1257C418,1302 430,1337 453,1360C476,1383 510,1395 553,1395C642,1395 686,1349 686,1257C686,1160 665,1071 622,990C579,909 528,846 471,803C460,795 449,791 438,791C425,791 415,795 406,804C397,813 393,823 393,836z"
   horiz-adv-x="745"
   unicode="”" />
<glyph
   id="glyph444"
   d="M59,-305C59,-295 63,-285 72,-274C93,-248 108,-228 117,-215C126,-202 136,-184 145,-159C154,-135 158,-110 158,-84C158,-57 146,-24 121,17C96,57 84,90 84,117C84,208 129,254 219,254C308,254 352,208 352,117C352,20 331,-69 288,-150C245,-232 194,-295 137,-338C126,-346 115,-350 104,-350C91,-350 81,-346 72,-337C63,-328 59,-318 59,-305M393,-305C393,-295 397,-285 406,-274C427,-248 442,-228 451,-215C460,-202 470,-184 479,-159C488,-135 492,-110 492,-84C492,-57 480,-24 455,17C430,57 418,90 418,117C418,208 463,254 553,254C642,254 686,208 686,117C686,20 665,-69 622,-150C579,-232 528,-295 471,-338C460,-346 449,-350 438,-350C425,-350 415,-346 406,-337C397,-328 393,-318 393,-305z"
   horiz-adv-x="782"
   unicode="„" />
<glyph
   id="glyph446"
   d="M162,571C162,757 251,850 428,850C605,850 694,757 694,571C694,482 671,416 626,372C580,327 514,305 428,305C342,305 276,327 231,372C185,416 162,482 162,571z"
   horiz-adv-x="856"
   unicode="•" />
<glyph
   id="glyph448"
   d="M96,117C96,208 141,254 231,254C320,254 365,208 365,117C365,28 320,-16 231,-16C141,-16 96,28 96,117M606,117C606,208 651,254 741,254C830,254 874,208 874,117C874,28 830,-16 741,-16C651,-16 606,28 606,117M1118,117C1118,208 1163,254 1253,254C1342,254 1386,208 1386,117C1386,28 1342,-16 1253,-16C1163,-16 1118,28 1118,117z"
   horiz-adv-x="1482"
   unicode="…" />
<glyph
   id="glyph450"
   horiz-adv-x="369"
   unicode=" " />
<glyph
   id="glyph452"
   d="M117,489l315,363C451,873 471,883 494,883C515,883 534,875 550,859C565,843 573,824 573,803C573,782 566,765 553,752l-289,-318l289,-317C566,104 573,87 573,66C573,45 565,26 550,10C534,-6 515,-14 494,-14C471,-14 450,-4 432,16l-315,363C102,396 94,415 94,434C94,453 102,472 117,489z"
   horiz-adv-x="667"
   unicode="‹" />
<glyph
   id="glyph454"
   d="M94,66C94,86 101,103 115,117l288,317l-288,318C101,766 94,783 94,803C94,824 102,843 118,859C134,875 153,883 174,883C197,883 217,873 236,852l315,-363C566,472 573,454 573,434C573,414 566,396 551,379l-315,-363C218,-4 197,-14 174,-14C153,-14 134,-6 118,10C102,26 94,45 94,66z"
   horiz-adv-x="667"
   unicode="›" />
<glyph
   id="glyph456"
   horiz-adv-x="461"
   unicode=" " />
<glyph
   id="glyph458"
   d="M57,633l15,0l0,90l-15,0C32,723 12,732 -5,749C-22,766 -31,786 -31,811C-31,836 -22,857 -5,874C12,891 32,899 57,899l33,0C120,1068 188,1195 294,1280C399,1365 539,1407 713,1407C830,1407 930,1387 1013,1347C1095,1306 1159,1253 1204,1186C1219,1162 1227,1139 1227,1118C1227,1089 1216,1063 1195,1042C1173,1021 1147,1010 1116,1010C1084,1010 1056,1024 1032,1051C989,1100 944,1137 895,1160C846,1183 785,1194 713,1194C609,1194 526,1170 465,1121C404,1072 361,998 338,899l252,0C615,899 636,891 653,874C670,857 678,836 678,811C678,786 670,766 653,749C636,732 615,723 590,723l-273,0l0,-90l273,0C615,633 636,625 653,608C670,591 678,570 678,545C678,520 670,500 653,483C636,466 615,457 590,457l-248,0C366,362 408,292 468,249C528,206 610,184 713,184C788,184 850,194 897,214C944,233 993,268 1042,319C1073,350 1102,365 1130,365C1161,365 1187,354 1209,333C1230,311 1241,285 1241,254C1241,231 1234,211 1221,193C1171,126 1101,73 1010,32C919,-9 820,-29 713,-29C362,-29 155,133 92,457l-35,0C32,457 12,466 -5,483C-22,500 -31,520 -31,545C-31,570 -22,591 -5,608C12,625 32,633 57,633z"
   horiz-adv-x="1325"
   unicode="€" />
<glyph
   id="glyph460"
   d="M49,1296C49,1307 53,1317 60,1324C67,1331 77,1335 88,1335l252,0C351,1335 361,1331 368,1324C375,1317 379,1307 379,1296C379,1285 375,1276 368,1269C361,1261 351,1257 340,1257l-82,0l0,-258C258,988 254,978 245,969C236,960 226,956 215,956C203,956 193,960 185,969C176,977 172,987 172,999l0,258l-84,0C77,1257 67,1261 60,1269C53,1276 49,1285 49,1296M430,997l0,303C430,1311 434,1321 442,1329C450,1337 460,1341 471,1341C486,1341 498,1334 508,1319l94,-168l94,168C706,1334 718,1341 733,1341C744,1341 754,1337 762,1329C770,1321 774,1311 774,1300l0,-303C774,986 770,976 762,968C754,960 744,956 733,956C722,956 712,960 704,968C696,976 692,986 692,997l0,164l-57,-106C626,1041 615,1034 602,1034C589,1034 578,1041 569,1055l-57,106l0,-164C512,986 508,976 500,968C492,960 482,956 471,956C460,956 450,960 442,968C434,976 430,986 430,997z"
   horiz-adv-x="858"
   unicode="™" />
<glyph
   id="glyph462"
   d="M0,0l0,942l942,0l0,-942z"
   horiz-adv-x="942"
   unicode="" />
<glyph
   id="glyph464"
   d="M125,930l43,0l0,96C168,1074 177,1120 195,1165C213,1210 239,1250 272,1286C305,1321 347,1350 400,1371C453,1392 511,1403 575,1403C620,1403 665,1399 708,1390C751,1381 784,1369 807,1356C844,1335 862,1304 862,1264C862,1235 852,1211 832,1190C811,1169 787,1159 758,1159C746,1159 728,1163 705,1171C652,1189 609,1198 575,1198C519,1198 474,1183 440,1154C406,1125 389,1087 389,1042l0,-112l473,0C893,930 919,919 941,898C962,876 973,850 973,819l0,-725C973,63 962,37 941,16C919,-5 893,-16 862,-16C831,-16 805,-5 784,16C763,37 752,63 752,94l0,651l-363,0l0,-655C389,60 378,35 357,15C336,-6 310,-16 279,-16C246,-16 220,-6 199,14C178,34 168,59 168,90l0,655l-43,0C100,745 78,754 60,773C42,791 33,813 33,838C33,863 42,885 60,903C78,921 100,930 125,930z"
   horiz-adv-x="1075"
   unicode="ﬁ" />
<glyph
   id="glyph466"
   d="M125,930l43,0l0,96C168,1074 177,1120 195,1165C213,1210 239,1250 272,1286C305,1321 347,1350 400,1371C453,1392 511,1403 575,1403C716,1403 830,1376 918,1321C955,1298 973,1266 973,1225l0,-1000C973,214 977,205 986,198C995,191 1003,188 1012,188C1041,188 1065,178 1085,159C1104,139 1114,115 1114,86C1114,57 1104,33 1085,14C1065,-6 1041,-16 1012,-16C931,-16 867,7 821,52C775,97 752,161 752,246l0,499l-363,0l0,-655C389,60 378,35 357,15C336,-6 310,-16 279,-16C246,-16 220,-6 199,14C178,34 168,59 168,90l0,655l-43,0C100,745 78,754 60,773C42,791 33,813 33,838C33,863 42,885 60,903C78,921 100,930 125,930M389,930l363,0l0,237C694,1188 635,1198 575,1198C519,1198 474,1183 440,1154C406,1125 389,1087 389,1042z"
   horiz-adv-x="1136"
   unicode="ﬂ" />
<glyph
   id="glyph468"
   d="M125,930l43,0l0,110C168,1105 182,1165 210,1219C237,1272 281,1316 342,1351C402,1386 474,1403 559,1403C586,1403 608,1394 627,1375C646,1356 655,1334 655,1307C655,1280 646,1258 627,1239C608,1220 586,1210 559,1210C504,1210 462,1196 433,1169C404,1141 389,1104 389,1057l0,-127l408,0l0,96C797,1074 806,1120 824,1165C842,1210 868,1250 901,1286C934,1321 976,1350 1029,1371C1082,1392 1140,1403 1204,1403C1249,1403 1294,1399 1337,1390C1380,1381 1413,1369 1436,1356C1473,1335 1491,1304 1491,1264C1491,1235 1481,1211 1460,1190C1439,1169 1415,1159 1386,1159C1374,1159 1356,1163 1333,1171C1280,1189 1237,1198 1204,1198C1148,1198 1103,1183 1069,1154C1035,1125 1018,1087 1018,1042l0,-112l473,0C1522,930 1548,919 1570,898C1591,876 1602,850 1602,819l0,-725C1602,63 1591,37 1570,16C1548,-5 1522,-16 1491,-16C1460,-16 1434,-5 1413,16C1391,37 1380,63 1380,94l0,651l-362,0l0,-655C1018,60 1007,35 986,15C964,-6 938,-16 907,-16C874,-16 848,-6 828,14C807,34 797,59 797,90l0,655l-408,0l0,-655C389,60 378,35 357,15C336,-6 310,-16 279,-16C246,-16 220,-6 199,14C178,34 168,59 168,90l0,655l-43,0C100,745 78,754 60,773C42,791 33,813 33,838C33,863 42,885 60,903C78,921 100,930 125,930z"
   horiz-adv-x="1703"
   unicode="ﬃ" />
<glyph
   id="glyph470"
   d="M125,930l43,0l0,110C168,1105 182,1165 210,1219C237,1272 281,1316 342,1351C402,1386 474,1403 559,1403C586,1403 608,1394 627,1375C646,1356 655,1334 655,1307C655,1280 646,1258 627,1239C608,1220 586,1210 559,1210C504,1210 462,1196 433,1169C404,1141 389,1104 389,1057l0,-127l406,0l0,96C795,1074 804,1120 822,1165C840,1210 866,1250 899,1286C932,1321 974,1350 1027,1371C1080,1392 1138,1403 1202,1403C1342,1403 1456,1376 1544,1321C1581,1298 1599,1266 1599,1225l0,-1000C1599,214 1603,205 1612,198C1621,191 1629,188 1638,188C1667,188 1691,178 1711,159C1731,139 1741,115 1741,86C1741,57 1731,33 1711,14C1691,-6 1667,-16 1638,-16C1557,-16 1493,7 1447,52C1401,97 1378,161 1378,246l0,499l-362,0l0,-655C1016,60 1005,35 984,15C962,-6 936,-16 905,-16C872,-16 846,-6 826,14C805,34 795,59 795,90l0,655l-406,0l0,-655C389,60 378,35 357,15C336,-6 310,-16 279,-16C246,-16 220,-6 199,14C178,34 168,59 168,90l0,655l-43,0C100,745 78,754 60,773C42,791 33,813 33,838C33,863 42,885 60,903C78,921 100,930 125,930M1016,930l362,0l0,237C1320,1188 1261,1198 1202,1198C1146,1198 1101,1183 1067,1154C1033,1125 1016,1087 1016,1042z"
   horiz-adv-x="1763"
   unicode="ﬄ" />
</font>
</defs>
</svg>
